<?xml version="1.0" standalone="no"?>
<!DOCTYPE svg PUBLIC "-//W3C//DTD SVG 1.1//EN" "http://www.w3.org/Graphics/SVG/1.1/DTD/svg11.dtd" >
<svg xmlns="http://www.w3.org/2000/svg">
<metadata>Generated by IcoMoon</metadata>
<defs>
<font id="dfd-socicons-font" horiz-adv-x="1024">
<font-face units-per-em="1024" ascent="960" descent="-64" />
<missing-glyph horiz-adv-x="1024" />
<glyph unicode="&#x20;" horiz-adv-x="512" d="" />
<glyph unicode="&#xe600;" glyph-name="px-icon" d="M1022.771 410.317c-0.614 5.325-1.434 10.445-2.458 15.565-5.12 27.034-16.384 52.838-33.382 74.547-18.842 24.371-45.875 41.779-75.366 50.381-12.083 3.686-24.576 5.325-37.274 6.554-10.445 0.205-21.094 0.614-31.334-0.614-10.035-0.819-20.070-2.867-29.901-5.734-13.722-4.301-27.238-10.035-39.936-17.203-18.842-10.445-35.84-24.371-51.2-39.322-15.974-16.179-30.72-33.382-45.261-50.79-11.264 13.517-22.938 26.624-34.816 39.322-6.758 6.758-13.312 13.722-20.48 20.070-23.552 21.094-50.995 38.298-81.51 47.514-11.264 3.482-23.142 5.325-35.021 6.554-7.373 0.614-14.541 0.205-21.914 0.205-2.458 0-5.12 0.205-7.578-0.614-7.373-0.205-14.746-1.638-22.118-2.867-4.096-0.819-8.397-1.843-12.493-3.277-18.842-5.734-36.454-14.746-51.814-27.034-22.938-18.022-39.731-43.008-49.152-70.451-4.301 9.421-9.421 18.842-15.36 27.238-17.818 25.19-44.237 43.622-73.728 52.019-4.506 1.434-9.216 2.458-14.131 3.277-6.144 1.024-12.493 1.638-18.637 2.253-12.902 0.205-26.214 0.205-39.117-2.253-24.576-3.686-47.514-16.384-64.717-34.202-2.867 0.205-1.434 4.096-1.024 5.939 1.843 11.878 4.096 23.552 6.144 35.43 1.638 10.24 3.686 20.48 5.325 30.515 1.843 10.445 3.686 20.685 5.734 31.334 0.205 1.434 0.614 2.662 0.819 4.096 0.205 1.024 0.205 1.843 0.614 2.867 65.946 0 131.686 0 197.632 0 0 26.624 0 53.248 0 79.872-89.088 0-178.176 0-267.264 0-2.662-15.155-5.325-30.515-8.192-45.67-1.024-5.734-2.253-11.264-2.867-17.203-1.843-10.445-3.686-20.685-5.734-31.334-0.205-1.638-0.614-2.867-0.819-4.506-0.614-4.301-1.638-8.397-2.253-12.698-1.024-6.144-2.253-12.493-3.277-18.637-1.024-5.734-2.253-11.674-3.277-17.203-0.614-4.301-1.434-8.397-2.253-12.698-0.205-1.434-0.614-2.662-0.819-3.686-1.843-10.445-3.686-20.685-5.734-31.334-3.277-17.613-6.144-35.43-9.421-52.838-0.614-4.301-1.434-8.397-2.253-12.698-0.205-1.434-0.614-2.662-0.614-4.301 29.082 0 58.368 0 87.245 0 8.806 12.083 19.661 23.552 33.382 30.515 9.216 4.506 19.661 6.758 29.901 7.578 6.554 0.205 13.312 0.205 19.661 0 2.458-0.614 5.12-0.614 7.782-1.024 15.565-2.662 30.31-10.854 40.96-21.914 11.674-11.878 18.842-27.238 22.118-43.418 5.325-26.624 1.024-55.501-13.722-78.643-8.602-13.517-21.504-24.371-36.25-30.72-7.373-3.277-15.155-4.915-22.938-5.734-5.12-0.205-10.035-0.205-15.155 0-5.734 0.819-11.674 1.434-17.203 3.277-14.541 4.096-27.853 12.698-37.069 24.781-10.035 12.493-15.36 28.058-16.794 43.622-32.358 0-64.717 0-97.075 0 0.614-5.12 0.205-10.24 1.024-15.155 0.205-5.325 1.434-10.445 2.253-15.565 0.205-1.434 0.614-2.458 0.819-3.686 0.819-3.277 1.638-6.144 2.458-9.216 6.554-21.914 19.251-41.779 35.021-57.958 11.878-11.674 26.010-21.299 40.755-28.877 12.902-6.554 26.624-10.854 40.755-14.336 19.251-4.301 38.912-6.554 58.368-5.939 39.731-0.205 79.053 13.312 110.182 38.093 21.914 17.613 39.117 40.55 50.176 66.355 4.096-9.626 8.397-19.251 14.131-28.058 7.782-12.698 18.022-23.962 29.491-33.997 22.733-19.456 50.381-32.973 80.077-37.274 19.251-2.867 38.502-2.867 57.754-0.205 5.325 1.024 10.854 1.843 16.179 3.277 3.482 0.819 6.758 1.843 10.24 3.277 9.216 3.277 18.022 6.963 26.624 11.674 18.432 9.421 34.816 22.118 50.176 35.84 11.059 10.24 21.094 21.094 31.539 31.949 6.144 6.758 12.902 13.312 18.842 20.070 6.963-8.192 14.131-15.974 21.299-23.757 10.445-10.854 21.094-21.914 32.563-31.334 25.395-21.504 54.886-38.912 87.245-47.514 4.915-1.024 9.421-2.253 14.336-2.867 17.203-2.867 34.816-2.662 52.019-0.819 31.13 3.686 61.235 16.998 84.378 38.093 23.962 22.118 40.141 51.61 48.333 82.944 1.434 4.915 2.458 9.626 3.277 14.541 0.819 5.12 1.638 10.035 2.253 15.155 1.024 8.602 1.434 16.998 1.434 25.6 0.819 8.192 0.819 16.589-0.614 24.986zM568.525 331.674c-12.698-9.421-27.034-16.998-41.779-22.323-5.12-1.843-10.445-3.277-15.974-4.301-15.974-2.662-32.973-2.253-48.128 3.482-12.493 4.506-22.938 13.312-30.515 23.962-5.325 7.578-9.216 16.384-11.264 25.395-2.253 10.445-3.482 21.299-2.253 32.154 0.205 4.506 1.024 9.216 2.253 13.517 3.482 14.131 10.445 27.238 20.275 38.298 9.216 10.445 22.323 17.818 36.25 20.070 2.253 0.614 4.506 0.614 6.758 1.024 6.554 0.205 13.312 0.205 19.456-1.024 17.613-2.867 33.382-11.264 48.128-20.685 25.395-16.998 47.309-38.502 67.994-61.030-15.565-17.613-31.949-35.021-51.2-48.538zM934.912 371.2c-1.843-16.179-7.578-31.949-18.022-44.442-8.602-11.059-21.504-18.637-35.021-21.299-12.698-2.662-26.214-2.662-39.117-0.205-3.277 0.614-6.554 1.434-9.626 2.253-32.154 9.626-59.392 30.72-82.125 54.886-5.734 6.144-11.878 12.083-16.998 18.842 12.493 12.902 24.576 26.419 37.888 38.912 17.818 16.384 37.478 31.334 60.826 39.322 4.301 1.434 8.602 2.458 13.312 3.277 13.517 2.253 27.443 1.434 40.55-3.277 14.336-4.915 26.214-14.746 34.611-27.238 7.782-11.264 12.493-24.781 14.131-38.298 0-7.987 0-15.565-0.41-22.733z" />
<glyph unicode="&#xe601;" glyph-name="vb" d="M783.701 868.409c-0.228-0.114-5.234-0.569-11.15-1.024-5.916-0.341-14.108-1.024-18.204-1.365-7.964-0.683-39.595-5.575-47.445-7.282-2.617-0.683-9.557-1.82-15.36-2.731s-13.426-2.276-16.839-2.844c-15.701-2.958-33.223-6.030-41.529-7.509-5.006-0.796-16.498-2.844-25.6-4.551-15.588-2.731-41.188-7.168-88.178-15.36-11.264-1.934-24.804-4.324-30.151-5.234s-19.684-3.413-31.858-5.575c-12.174-2.162-28.103-4.892-35.271-6.258-7.168-1.252-19.456-3.413-27.307-4.665-7.851-1.365-14.791-2.958-15.474-3.755-0.683-0.683-2.389-10.468-3.755-21.732-4.096-32.654-9.216-71.111-11.947-89.316-1.024-6.599-2.048-13.995-2.389-16.498-3.072-24.576-5.803-45.511-7.851-59.733-0.91-6.599-3.072-22.187-4.665-34.702s-3.413-25.828-3.982-29.582c-0.569-3.755-2.958-20.139-5.12-36.409s-4.551-32.654-5.12-36.409c-0.683-3.755-2.162-15.019-3.527-25.031-1.252-10.012-2.731-21.732-3.3-26.169-0.569-4.324-2.844-21.049-5.006-36.978-2.276-15.929-4.892-34.93-5.803-42.098-1.934-14.336-5.689-41.756-7.396-53.476-0.569-4.096-1.707-12.174-2.389-17.977-0.796-6.258-1.82-10.468-2.617-10.468-0.683 0-4.779 6.827-8.988 15.132-4.21 8.192-12.629 24.804-18.887 36.636-6.144 11.947-14.677 28.331-18.887 36.409-4.21 8.192-12.629 24.235-18.773 35.84-11.378 21.732-20.594 39.253-35.84 68.836-4.892 9.444-10.581 20.252-12.629 24.007-2.048 3.868-7.737 14.677-12.516 23.893-4.779 9.33-10.354 20.025-12.402 23.78s-8.647 16.612-14.791 28.444c-6.144 11.947-12.971 25.259-15.36 29.582-2.276 4.437-8.192 15.701-13.084 25.031-4.892 9.444-10.809 20.708-13.084 25.031-2.276 4.437-7.737 14.677-11.947 22.756-4.21 8.192-9.899 18.887-12.516 23.893s-10.354 19.911-17.067 32.996c-6.713 13.198-12.857 24.576-13.426 25.372-0.683 0.796-2.389 1.252-4.096 0.91-1.593-0.341-7.509-1.365-13.198-2.389-12.743-2.162-19.57-3.413-29.355-5.234l-7.623-1.479v-115.598c0-63.829 0.455-116.053 1.024-116.622 0.455-0.683 5.689-10.126 11.492-21.049s13.084-24.804 16.27-30.72c3.072-5.916 7.623-14.336 9.899-18.773 5.12-9.444 11.833-22.414 21.618-40.96 3.982-7.509 7.509-14.108 7.964-14.791 0.455-0.569 4.779-8.761 9.671-18.204 4.892-9.33 10.468-20.139 12.516-23.893 3.982-7.396 11.036-20.594 19.228-36.068 5.234-10.126 7.851-14.905 25.486-48.128 5.234-10.012 12.402-23.552 15.929-30.151 6.94-13.198 10.581-20.025 21.845-40.96 4.21-7.851 11.378-21.39 15.929-30.151s9.671-18.432 11.378-21.618c3.868-7.168 11.378-21.276 19.911-37.547 3.641-6.827 8.533-16.043 10.809-20.48 2.389-4.324 7.396-14.222 11.264-21.845s7.737-14.45 8.647-15.132c1.252-1.024 3.3-1.024 8.761-0.114 3.982 0.796 12.857 2.389 19.684 3.641 6.94 1.252 15.246 2.731 18.546 3.3 8.306 1.593 15.36 2.844 34.93 6.258 9.444 1.707 19.342 3.413 22.187 3.982 2.844 0.455 12.857 2.276 22.187 3.982 9.444 1.593 19.911 3.413 23.324 3.982 20.48 3.413 28.672 5.006 30.379 6.030 1.024 0.683 2.048 4.665 3.3 13.881 0.228 1.934 1.024 7.054 1.593 11.378 0.683 4.437 1.707 11.833 2.276 16.498s1.707 11.833 2.276 15.929c0.683 4.096 1.593 10.695 2.162 14.791 3.072 22.187 4.892 34.588 6.258 43.236 0.91 5.348 2.162 13.54 2.844 18.204s2.162 15.474 3.413 23.893c1.252 8.42 3.641 24.576 5.234 35.84s3.413 23.211 3.982 26.624c0.683 3.413 1.138 7.623 1.138 9.444 0 1.707 0.455 3.186 1.024 3.186 1.024 0 1.707-2.276 2.958-10.24 0.341-2.162 2.617-15.701 5.12-30.151 2.503-14.336 5.575-32.313 6.827-39.822 1.365-7.509 2.844-15.701 3.413-18.204s1.82-9.671 2.844-15.929c1.024-6.258 2.276-13.653 2.844-16.498s2.844-15.815 5.12-29.013c7.623-44.715 9.899-56.889 10.809-57.913 0.91-0.91 4.551-0.455 20.48 2.844 2.844 0.569 9.785 1.82 15.36 2.731 13.995 2.503 42.098 7.396 48.356 8.533 2.844 0.569 27.648 4.779 55.182 9.557 27.534 4.665 52.338 9.102 55.182 9.671 2.844 0.683 6.94 1.479 9.102 1.707 2.162 0.341 9.899 1.707 17.067 2.958 37.774 6.713 46.763 8.306 67.129 11.833 54.158 9.444 80.782 14.45 93.070 17.749 12.516 3.3 34.475 10.24 39.481 12.516 1.252 0.569 7.964 3.413 14.791 6.372 16.839 7.168 26.396 11.947 38.002 19.342 5.348 3.413 10.809 6.827 12.060 7.623 3.527 2.162 20.025 15.588 25.372 20.708 2.731 2.503 5.461 4.779 6.030 4.892 0.569 0.228 1.024 57.23 1.024 143.815v143.36l-4.21 3.982c-14.222 13.198-21.959 18.546-38.116 26.852-18.091 9.216-42.325 16.725-60.302 18.546-4.324 0.455-7.737 1.138-7.737 1.593s3.982 3.982 8.875 7.737c8.988 6.94 25.486 23.324 31.63 31.516 5.006 6.599 11.833 16.384 11.833 17.067 0 0.341 1.252 2.503 2.617 4.892 3.3 5.234 11.492 25.145 13.084 32.199 7.396 30.492 5.575 62.919-5.916 104.562-8.761 31.972-28.786 62.919-52.338 81.237-26.055 20.139-52.452 29.924-92.274 34.133-12.743 1.365-46.308 2.276-47.445 1.252zM765.383 732.9c18.546-3.072 29.013-7.168 39.822-16.043 11.605-9.33 18.318-19.456 22.983-34.361 4.437-13.995 6.030-24.121 5.916-37.66-0.228-13.426-2.389-23.211-7.623-33.678-8.988-17.977-32.199-34.93-57.913-42.325-9.557-2.731-39.14-8.42-78.507-15.019-17.18-2.958-46.308-8.078-73.387-13.084-17.067-3.072-26.169-4.437-26.624-3.868-0.341 0.341-2.844 14.108-5.689 30.606-4.551 26.51-9.216 53.248-14.905 85.333-3.527 20.366-8.647 46.649-9.216 48.356-0.455 1.138 0.228 2.048 2.162 2.731 2.617 1.024 27.762 5.803 42.894 8.078 3.413 0.569 9.33 1.593 13.084 2.276s10.923 1.934 15.929 2.844c5.006 0.796 24.007 4.21 42.098 7.396 55.524 10.012 70.77 11.492 88.974 8.42zM843.321 456.647c33.564-7.282 53.703-25.828 65.195-60.075 8.078-24.235 10.012-49.38 5.234-66.446-7.054-25.372-23.211-43.349-49.948-55.865-21.39-10.012-30.492-12.174-100.921-24.348-37.888-6.485-58.368-10.126-80.782-14.108-34.475-6.258-36.978-6.599-37.66-5.916-0.341 0.341-2.276 10.468-4.437 22.642-2.048 12.060-4.892 28.103-6.258 35.612s-4.21 23.666-6.258 35.84c-2.162 12.174-4.665 26.51-5.689 31.858-4.324 23.552-11.947 67.812-11.947 69.177 0 1.024 7.737 2.617 42.667 8.761 9.444 1.593 22.414 3.868 29.013 5.12s22.414 4.096 35.271 6.258c12.857 2.276 29.013 5.12 35.84 6.372 26.283 4.551 46.876 7.737 52.338 8.078 9.557 0.569 29.127-0.91 38.343-2.958z" />
<glyph unicode="&#xe900;" glyph-name="cloud" d="M640 832.011c-167.179 0-309.312-106.88-362.048-256h-21.952c-141.376 0-256-114.613-256-256.011 0-141.387 114.624-256.011 256.011-256.011 0.277 0 0.544 0.021 0.821 0.021h383.168c212.075 0 384 171.925 384 384s-171.925 384-384 384zM640 149.344h-384c-94.251 0-170.667 76.405-170.667 170.667s76.416 170.667 170.667 170.667h88.512c20.715 144.704 145.056 256 295.488 256 164.949 0 298.667-133.717 298.667-298.667s-133.717-298.667-298.667-298.667z" />
<glyph unicode="&#xe901;" glyph-name="cloud-download" d="M712.832 264.832c16.661-16.661 16.661-43.68 0-60.331l-128-128c-8-8-18.848-12.501-30.165-12.501s-22.165 4.501-30.165 12.501l-128 128c-16.661 16.661-16.661 43.68 0 60.331 16.661 16.661 43.68 16.661 60.331 0l55.168-55.157v280.992c0 23.563 19.104 42.667 42.667 42.667s42.667-19.104 42.667-42.667v-280.992l55.168 55.157c16.651 16.672 43.68 16.672 60.331 0zM640 874.667c-167.179 0-309.312-106.88-362.048-256h-21.92c0 0-0.011 0-0.021 0-141.387 0-256.011-114.613-256.011-256.011 0-141.387 114.624-256.011 256.011-256.011 0.277 0 0.544 0.021 0.821 0.021h116.811l-37.493 37.493c-12.203 12.203-21.643 26.443-28.117 42.389-0.725 1.813-1.419 3.627-2.059 5.461h-49.973c-23.563 0-46.005 4.768-66.432 13.408-61.259 25.909-104.235 86.56-104.235 157.248 0 94.261 76.416 170.667 170.667 170.667h88.512c20.715 144.704 145.045 256 295.488 256 164.949 0 298.667-133.717 298.667-298.667 0-101.675-50.816-191.488-128.437-245.44 0.288-3.499 0.437-7.019 0.437-10.56 0-16.587-3.157-32.768-9.376-48.128-6.464-15.936-15.915-30.187-28.117-42.389l-20.779-20.779c157.237 48.064 271.605 194.325 271.605 367.296 0 212.075-171.925 384-384 384z" />
<glyph unicode="&#xe902;" glyph-name="cloud-upload" d="M1024 490.667c0-197.643-149.344-360.427-341.333-381.653v86.016c144.736 20.704 256 145.184 256 295.637 0 164.949-133.717 298.667-298.667 298.667-150.443 0-274.773-111.296-295.488-256h-88.512c-94.251 0-170.667-76.405-170.667-170.667 0-70.699 42.976-131.339 104.235-157.259 20.427-8.629 42.869-13.408 66.432-13.408h170.667v-85.333h-169.835c-0.277 0-0.544-0.021-0.821-0.021-141.387 0-256.011 114.624-256.011 256.011 0 141.397 114.624 256.011 256 256.011v0h21.952c52.736 149.12 194.869 256 362.048 256 212.075 0 384-171.925 384-384zM712.832 332.48c16.661 16.661 16.661 43.68 0 60.331l-128 128c-8 8-18.859 12.501-30.165 12.501s-22.165-4.501-30.165-12.501l-128-128c-16.661-16.661-16.661-43.68 0-60.331 16.661-16.661 43.68-16.661 60.331 0l55.168 55.157v-280.992c0-23.563 19.104-42.667 42.667-42.667s42.667 19.104 42.667 42.667v280.992l55.168-55.157c16.651-16.672 43.68-16.672 60.331 0z" />
<glyph unicode="&#xe903;" glyph-name="signal" d="M620.075 248.171c-66.763 39.168-149.632 39.019-216.277-0.331-20.245-12-27.008-38.144-15.019-58.453 11.979-20.267 38.144-26.997 58.432-15.019 39.968 23.627 89.664 23.691 129.707 0.213 17.109-10.016 38.347-6.795 51.744 6.603 2.517 2.517 4.757 5.397 6.645 8.629 11.915 20.288 5.099 46.432-15.232 58.357zM214.923 427.413c-18.293-14.912-20.896-41.835-5.963-60.064 14.933-18.208 41.813-20.875 60.043-5.963 140.8 115.413 345.205 115.413 486.016 0.032 17.109-13.995 41.856-12.523 57.163 2.816 1.003 1.003 1.973 2.037 2.88 3.168 14.933 18.229 12.245 45.109-5.963 60.043-172.149 141.045-422.027 141.045-594.176-0.032zM991.861 607.989c-273.557 241.792-686.165 241.792-959.744 0-17.632-15.381-19.328-42.56-3.712-60.224 15.595-17.653 42.549-19.328 60.224-3.723 241.355 213.312 605.365 213.312 846.72 0 16.992-14.997 42.581-14.027 58.411 1.771 0.64 0.64 1.227 1.269 1.824 1.963 15.605 17.653 13.941 44.608-3.723 60.213z" />
<glyph unicode="&#xe904;" glyph-name="command" d="M768 362.667v0h-85.333v170.667h85.333c94.251 0 170.667 76.416 170.667 170.667s-76.416 170.667-170.667 170.667c-94.261 0-170.667-76.416-170.667-170.667v-85.333h-170.667v85.333c0 94.251-76.416 170.667-170.667 170.667s-170.667-76.416-170.667-170.667 76.416-170.667 170.667-170.667h85.333v-170.667h-85.333c-94.251 0-170.667-76.416-170.667-170.667s76.416-170.667 170.667-170.667c94.261 0 170.667 76.416 170.667 170.667v0 85.333h170.667v-85.12c0-0.085-0.011-0.149-0.011-0.213 0-94.251 76.416-170.667 170.667-170.667s170.667 76.416 170.667 170.667-76.405 170.645-170.656 170.667zM768 789.333c47.125 0 85.333-38.208 85.333-85.333s-38.208-85.333-85.333-85.333h-85.333v85.333c0 47.125 38.208 85.333 85.333 85.333zM170.667 704c0 47.125 38.208 85.333 85.333 85.333s85.333-38.208 85.333-85.333v-85.333h-85.333c-47.125 0-85.333 38.219-85.333 85.333zM256 106.667c-47.125 0-85.333 38.208-85.333 85.333s38.208 85.333 85.333 85.333v0h85.333v-85.333c0-47.125-38.208-85.333-85.333-85.333zM426.667 362.667v170.667h170.667v-170.667h-170.667zM768 106.667c-47.125 0-85.333 38.208-85.333 85.333v0 85.333h85.323c47.125 0 85.333-38.208 85.333-85.333s-38.197-85.333-85.323-85.333z" />
<glyph unicode="&#xe905;" glyph-name="share" d="M768 362.667c-51.328 0-97.28-22.795-128.587-58.677l-216.555 108.277c2.453 11.52 3.808 23.488 3.808 35.733s-1.355 24.213-3.808 35.733l216.565 108.277c31.285-35.893 77.248-58.677 128.576-58.677 94.251 0 170.667 76.416 170.667 170.667s-76.416 170.667-170.667 170.667-170.667-76.416-170.667-170.667c0-12.245 1.355-24.213 3.808-35.733l-216.555-108.277c-31.296 35.893-77.237 58.677-128.587 58.677-94.251 0-170.667-76.416-170.667-170.667s76.416-170.667 170.667-170.667c51.349 0 97.28 22.795 128.587 58.677l216.555-108.277c-2.453-11.52-3.808-23.488-3.808-35.733 0-94.251 76.416-170.667 170.667-170.667s170.667 76.416 170.667 170.667-76.416 170.667-170.667 170.667zM768 789.333c47.125 0 85.333-38.208 85.333-85.333s-38.208-85.333-85.333-85.333-85.333 38.208-85.333 85.333 38.208 85.333 85.333 85.333zM256 362.667c-47.125 0-85.333 38.208-85.333 85.333s38.208 85.333 85.333 85.333 85.333-38.208 85.333-85.333-38.208-85.333-85.333-85.333zM768 106.667c-47.125 0-85.333 38.208-85.333 85.333s38.208 85.333 85.333 85.333 85.333-38.208 85.333-85.333-38.208-85.333-85.333-85.333z" />
<glyph unicode="&#xe906;" glyph-name="map" d="M682.667 746.667l-340.459 213.333-342.208-213.664v-810.336l341.333 213.333 341.333-213.333 341.333 213.333v810.667l-341.333-213.333zM85.333 89.963v609.045l213.333 133.205v-608.896l-2.56-1.589-210.773-131.765zM384 223.317v609.792l256-160.427v-609.397l-256 160.032zM938.667 196.629l-213.333-133.333v609.387l213.333 133.355v-609.408z" />
<glyph unicode="&#xe907;" glyph-name="globe" d="M530.016 917.024c-5.963 0.203-11.936 0.309-18.016 0.309s-12.053-0.107-18.016-0.309c-250.891-9.504-451.317-215.904-451.317-469.024s200.427-459.52 451.317-469.024c5.963-0.203 11.936-0.309 18.016-0.309s12.053 0.107 18.016 0.309c250.891 9.504 451.317 215.904 451.317 469.024s-200.427 459.52-451.317 469.024zM893.547 490.667h-169.707c-9.707 142.933-66.891 256.96-114.56 328.96 151.573-39.68 266.773-169.611 284.267-328.96zM512.107 808.747c41.909-54.613 114.133-168.533 126.187-318.080h-252.587c12.053 148.907 84.48 263.253 126.4 318.080zM638.293 405.333c-12.053-148.907-84.373-263.253-126.4-318.080-41.909 54.613-114.133 168.533-126.187 318.080h252.587zM414.72 819.627c-47.68-72-104.853-186.027-114.549-328.96h-169.717c17.493 159.349 132.693 289.28 284.267 328.96zM130.453 405.333h169.707c9.707-142.837 66.773-256.853 114.453-328.853-151.573 39.573-266.667 169.504-284.16 328.853zM609.387 76.48c47.68 72 104.747 186.016 114.443 328.853h169.707c-17.483-159.349-132.576-289.28-284.149-328.853z" />
<glyph unicode="&#xe908;" glyph-name="location" d="M850.699 786.709l-279.328-609.44-76.181 253.931-253.931 76.181 609.44 279.328zM1024 960l-1024-469.333 426.667-128 128-426.667 469.333 1024z" />
<glyph unicode="&#xe909;" glyph-name="layers" d="M512 138.496l-416 208-96-48 512-256 512 256-96 48-416-208zM512 319.669l-416 208-96-48 512-256 512 256-96 48-416-208zM1024 661.333l-512 256-512-256 512-256 512 256zM512 821.941l321.184-160.608-321.184-160.608-321.184 160.608 321.184 160.608z" />
<glyph unicode="&#xe90a;" glyph-name="arrow-up" d="M554.667 64.011v665.003l225.835-225.835c16.661-16.661 43.669-16.661 60.331 0s16.661 43.68 0 60.341l-298.667 298.667c-16.661 16.661-43.68 16.661-60.331 0l-298.667-298.667c-8.331-8.331-12.501-19.243-12.501-30.176 0-10.912 4.171-21.835 12.501-30.165 16.661-16.661 43.68-16.661 60.331 0l225.835 225.835v-665.003c0-23.563 19.104-42.667 42.667-42.667s42.667 19.104 42.667 42.667z" />
<glyph unicode="&#xe90b;" glyph-name="arrow-down" d="M469.333 832v-665.003l-225.835 225.835c-16.661 16.661-43.669 16.661-60.331 0s-16.661-43.68 0-60.341l298.667-298.667c16.661-16.661 43.68-16.661 60.331 0l298.667 298.667c8.331 8.331 12.501 19.253 12.501 30.176 0 10.912-4.171 21.835-12.501 30.165-16.661 16.661-43.68 16.661-60.331 0l-225.835-225.835v665.003c0 23.552-19.104 42.667-42.667 42.667s-42.667-19.104-42.667-42.667z" />
<glyph unicode="&#xe90c;" glyph-name="arrow-left" d="M895.989 490.677h-664.992l225.835 225.835c16.661 16.661 16.651 43.669 0 60.341-16.661 16.661-43.669 16.661-60.341 0l-298.667-298.667c-16.661-16.661-16.661-43.68-0.011-60.331l298.667-298.667c8.331-8.331 19.253-12.501 30.176-12.501 10.912 0 21.835 4.171 30.176 12.512 16.661 16.651 16.651 43.669 0 60.32l-225.845 225.824h665.003c23.563 0 42.677 19.115 42.667 42.667 0 23.563-19.104 42.667-42.667 42.667z" />
<glyph unicode="&#xe90d;" glyph-name="arrow-right" d="M128 405.333h665.003l-225.835-225.835c-16.661-16.661-16.661-43.669 0-60.331s43.68-16.661 60.341 0l298.667 298.667c16.661 16.661 16.661 43.68 0 60.331l-298.667 298.667c-8.331 8.331-19.253 12.501-30.176 12.501-10.912 0-21.835-4.171-30.165-12.501-16.661-16.661-16.661-43.68 0-60.331l225.835-225.835h-665.003c-23.563 0-42.667-19.104-42.667-42.667s19.104-42.667 42.667-42.667z" />
<glyph unicode="&#xe90e;" glyph-name="repeat" d="M1024 789.333v-256c0-23.563-19.104-42.667-42.667-42.667h-256c-23.563 0-42.667 19.104-42.667 42.667s19.104 42.667 42.667 42.667h143.883c-57.419 55.968-102.763 100.267-115.563 113.067-0.107 0.107-0.203 0.203-0.288 0.288-32.608 32.608-70.581 57.835-112.896 74.987-40.896 16.587-84.117 24.992-128.469 24.992s-87.573-8.405-128.469-24.992c-42.315-17.152-80.288-42.389-112.896-74.987-2.859-2.859-5.675-5.76-8.427-8.715-27.307-29.259-48.949-62.539-64.469-99.157-2.379-6.688-5.344-13.163-7.712-19.872-7.915-22.091-32.213-33.653-54.357-25.845-22.101 7.797-33.749 31.947-26.165 54.059 3.232 9.333 6.869 18.549 10.805 27.616 8.512 19.701 18.528 38.763 29.92 56.917 14.357 22.912 30.987 44.544 49.557 64.459 3.435 3.691 6.933 7.328 10.507 10.891 40.715 40.715 88.213 72.245 141.163 93.717 25.451 10.325 52.053 18.208 79.072 23.435 26.773 5.184 54.176 7.808 81.472 7.808s54.699-2.624 81.461-7.808c27.019-5.227 53.621-13.109 79.072-23.435 52.96-21.472 100.448-53.003 141.163-93.717l0.629-0.629c13.675-13.632 62.987-61.803 124.341-121.6v161.856c0 23.563 19.104 42.667 42.667 42.667s42.667-19.104 42.667-42.667zM42.667 64c23.563 0 42.667 19.104 42.667 42.667v161.867c61.355-59.797 110.667-107.968 124.341-121.6l0.629-0.629c40.715-40.715 88.213-72.245 141.163-93.717 25.451-10.325 52.053-18.208 79.072-23.435 26.763-5.195 54.165-7.819 81.461-7.819 54.88 0 109.675 10.624 160.533 31.253 52.96 21.472 100.448 53.003 141.163 93.717 3.573 3.563 7.072 7.2 10.507 10.891 18.571 19.915 35.211 41.547 49.557 64.459 11.381 18.155 21.408 37.216 29.92 56.917 3.936 9.067 7.573 18.283 10.805 27.616 7.584 22.112-4.064 46.261-26.165 54.059-22.144 7.808-46.443-3.755-54.357-25.845-2.368-6.709-5.333-13.184-7.712-19.872-34.944-82.443-102.837-149.216-185.792-182.869-40.885-16.587-84.107-24.992-128.459-24.992s-87.573 8.405-128.469 24.992c-42.315 17.152-80.288 42.389-112.896 74.987-0.096 0.096-0.192 0.192-0.288 0.288-12.8 12.789-58.144 57.099-115.563 113.067h143.883c23.563 0 42.667 19.104 42.667 42.667s-19.104 42.667-42.667 42.667h-256c-23.563 0-42.667-19.104-42.667-42.667v-256c0-23.563 19.104-42.667 42.667-42.667z" />
<glyph unicode="&#xe90f;" glyph-name="reload" d="M981.333 789.333v-256c0-23.563-19.104-42.667-42.667-42.667h-256c-23.563 0-42.667 19.104-42.667 42.667s19.104 42.667 42.667 42.667h143.883c-57.867 56.405-103.467 100.981-115.851 113.355-32.608 32.608-70.581 57.835-112.896 74.987-40.896 16.587-84.117 24.992-128.469 24.992s-87.573-8.405-128.469-24.992c-42.315-17.152-80.288-42.389-112.896-74.987-32.597-32.597-57.824-70.571-74.976-112.885-16.587-40.896-24.992-84.117-24.992-128.469s8.405-87.573 24.992-128.469c17.152-42.315 42.389-80.288 74.976-112.885 32.608-32.608 70.581-57.835 112.896-74.987 40.896-16.587 84.117-24.992 128.469-24.992s87.573 8.405 128.469 24.992c42.315 17.152 80.288 42.389 112.896 74.987 18.304 18.315 34.485 38.603 48.107 60.309 13.227 21.109 24.139 43.733 32.427 67.232 7.829 22.229 32.213 33.888 54.432 26.048s33.888-32.213 26.048-54.432c-10.389-29.44-24.043-57.749-40.608-84.171-17.024-27.157-37.227-52.501-60.075-75.339-40.715-40.715-88.213-72.245-141.163-93.717-25.451-10.325-52.053-18.208-79.072-23.435-26.763-5.184-54.165-7.808-81.461-7.808s-54.699 2.624-81.461 7.808c-27.019 5.227-53.621 13.109-79.072 23.435-52.96 21.472-100.448 53.003-141.163 93.717s-72.256 88.213-93.717 141.173c-10.325 25.451-18.208 52.053-23.445 79.072-5.184 26.773-7.808 54.165-7.808 81.461s2.624 54.688 7.797 81.461c5.237 27.019 13.12 53.621 23.445 79.072 21.472 52.96 53.003 100.448 93.717 141.163s88.213 72.245 141.163 93.717c25.451 10.325 52.053 18.208 79.072 23.435 26.773 5.195 54.176 7.819 81.472 7.819s54.699-2.624 81.461-7.808c27.019-5.227 53.621-13.109 79.072-23.435 52.96-21.472 100.448-53.003 141.163-93.717 12.747-12.747 62.645-61.483 124.971-122.24v161.867c0 23.563 19.104 42.667 42.667 42.667s42.667-19.104 42.667-42.667z" />
<glyph unicode="&#xe910;" glyph-name="reply2" d="M597.333 576h-409.003l198.699 198.688c16.661 16.661 16.661 43.68 0 60.341s-43.68 16.661-60.341 0l-271.52-271.52c-16.661-16.661-16.661-43.691 0-60.341l271.52-271.531c16.661-16.661 43.691-16.661 60.341 0s16.661 43.68 0 60.341l-198.677 198.688h408.981c164.949 0 298.667-133.717 298.667-298.667v-42.667c0-23.563 19.104-42.667 42.667-42.667s42.667 19.104 42.667 42.667v42.667c0 212.085-171.925 384-384 384z" />
<glyph unicode="&#xe911;" glyph-name="shuffle" d="M566.933 606.475c-34.4-43.584-54.933-98.635-54.933-158.475 0-60-15.477-116.373-42.667-165.376-14.955-26.955-33.461-51.691-54.891-73.547-61.941-63.189-148.288-102.411-243.776-102.411h-85.333c-23.563 0-42.667 19.104-42.667 42.667s19.104 42.667 42.667 42.667h85.333c81.547 0 154.187 38.123 201.067 97.525 34.4 43.584 54.933 98.635 54.933 158.475 0 60 15.477 116.373 42.667 165.376 14.955 26.955 33.461 51.691 54.891 73.547 61.941 63.189 148.288 102.411 243.776 102.411h67.659l-97.824 97.835c-16.661 16.661-16.661 43.68 0 60.331 16.661 16.661 43.68 16.661 60.331 0l170.667-170.667c16.661-16.661 16.661-43.68 0-60.331l-170.667-170.667c-8.331-8.331-19.253-12.501-30.165-12.501s-21.835 4.171-30.165 12.501c-16.661 16.661-16.661 43.68 0 60.331l97.824 97.835h-67.659c-81.547 0-154.187-38.123-201.067-97.525zM85.333 704h85.333c81.547 0 154.187-38.123 201.067-97.525 11.392 28.448 25.76 55.392 42.72 80.437-61.952 63.2-148.299 102.421-243.787 102.421h-85.333c-23.563 0-42.667-19.104-42.667-42.667s19.104-42.667 42.667-42.667zM798.165 350.165c-16.661 16.661-43.68 16.661-60.331 0-16.661-16.661-16.661-43.68 0-60.331l97.824-97.835h-67.659c-81.547 0-154.187 38.123-201.067 97.525-11.392-28.448-25.76-55.392-42.72-80.437 61.952-63.2 148.299-102.421 243.787-102.421h67.659l-97.824-97.835c-16.661-16.661-16.661-43.68 0-60.331 8.331-8.331 19.253-12.501 30.165-12.501s21.835 4.171 30.165 12.501l170.667 170.667c16.661 16.661 16.661 43.68 0 60.331l-170.667 170.667z" />
<glyph unicode="&#xe912;" glyph-name="esc" d="M512-21.333c-59.477 0-117.461 10.987-172.331 32.661-53.003 20.928-101.312 51.072-143.616 89.6-85.984 78.325-139.627 184.928-151.072 300.181-2.325 23.445 14.795 44.341 38.251 46.677 23.445 2.336 44.341-14.795 46.667-38.24 9.355-94.251 53.259-181.451 123.616-245.536 34.624-31.541 74.155-56.213 117.504-73.323 44.843-17.707 92.288-26.688 140.981-26.688 51.851 0 102.144 10.144 149.461 30.155 22.741 9.621 44.683 21.536 65.205 35.392 20.341 13.749 39.477 29.536 56.864 46.912s33.163 36.523 46.912 56.864c13.867 20.523 25.771 42.464 35.392 65.205 20.021 47.328 30.165 97.621 30.165 149.472 0 48.693-8.981 96.139-26.699 140.992-17.109 43.339-41.781 82.869-73.323 117.504-64.085 70.357-151.285 114.261-245.536 123.616-23.445 2.325-40.576 23.221-38.24 46.667 2.336 23.456 23.221 40.576 46.677 38.251 115.264-11.445 221.867-65.109 300.181-151.072 38.528-42.304 68.672-90.613 89.6-143.616 21.685-54.88 32.672-112.864 32.672-172.341 0-63.339-12.416-124.811-36.896-182.699-11.776-27.819-26.336-54.645-43.285-79.744-16.779-24.843-36.064-48.213-57.291-69.429-21.216-21.227-44.587-40.512-69.429-57.291-25.099-16.949-51.915-31.509-79.744-43.285-57.877-24.469-119.349-36.885-182.688-36.885zM542.165 478.165l-353.824 353.835h152.992c23.563 0 42.667 19.104 42.667 42.667s-19.104 42.667-42.667 42.667h-256c-23.563 0-42.667-19.104-42.667-42.667v-256c0-23.563 19.104-42.667 42.667-42.667s42.667 19.104 42.667 42.667v152.992l353.835-353.824c8.331-8.331 19.253-12.501 30.165-12.501s21.835 4.171 30.165 12.501c16.672 16.651 16.672 43.68 0 60.331z" />
<glyph unicode="&#xe913;" glyph-name="open" d="M938.667 448c-23.563 0-42.667-19.104-42.667-42.667v-298.667c0-23.573-19.093-42.667-42.667-42.667h-682.667c-23.573 0-42.667 19.093-42.667 42.667v682.667c0 23.573 19.093 42.667 42.667 42.667h298.667c23.563 0 42.667 19.104 42.667 42.667s-19.104 42.667-42.667 42.667h-298.667c-70.688 0-128-57.312-128-128v-682.667c0-70.688 57.312-128 128-128h682.667c70.688 0 128 57.312 128 128v298.667c0 23.563-19.104 42.667-42.667 42.667zM981.333 874.667v-256c0-23.563-19.104-42.667-42.667-42.667s-42.667 19.104-42.667 42.667v153.003l-349.557-349.547c-16.651-16.661-43.669-16.661-60.32 0-16.661 16.651-16.661 43.669 0 60.331l349.536 349.547h-152.992c-23.563 0-42.667 19.104-42.667 42.667s19.104 42.667 42.667 42.667h256c23.563 0 42.667-19.104 42.667-42.667z" />
<glyph unicode="&#xe914;" glyph-name="upload" d="M85.333 234.667v597.333c0 70.699 57.301 128 128 128h597.333c70.699 0 128-57.301 128-128v-597.333c0-70.699-57.301-128-128-128h-170.667v85.333h170.667c23.563 0 42.667 19.104 42.667 42.667v597.333c0 23.563-19.104 42.667-42.667 42.667h-597.333c-23.563 0-42.667-19.104-42.667-42.667v-597.333c0-23.563 19.104-42.667 42.667-42.667h170.667v-85.333h-170.667c-70.688 0-128 57.301-128 128zM311.168 460.501c16.661-16.661 43.68-16.661 60.331 0l97.835 97.824v-579.659c0-23.563 19.104-42.667 42.667-42.667s42.667 19.104 42.667 42.667v579.659l97.835-97.824c16.661-16.661 43.68-16.661 60.331 0 16.661 16.661 16.661 43.68 0 60.331l-170.667 170.667c-8 8-18.848 12.501-30.165 12.501s-22.165-4.501-30.165-12.501l-170.667-170.667c-16.672-16.651-16.672-43.68 0-60.331z" />
<glyph unicode="&#xe915;" glyph-name="download" d="M938.667 661.333v-597.333c0-70.699-57.301-128-128-128h-597.333c-70.699 0-128 57.301-128 128v597.333c0 70.699 57.301 128 128 128h170.667v-85.333h-170.667c-23.563 0-42.667-19.104-42.667-42.667v-597.333c0-23.563 19.104-42.667 42.667-42.667h597.333c23.563 0 42.667 19.104 42.667 42.667v597.333c0 23.563-19.104 42.667-42.667 42.667h-170.667v85.333h170.667c70.699 0 128-57.301 128-128zM712.832 478.165c-16.661 16.661-43.68 16.661-60.331 0l-97.835-97.824v536.992c0 23.563-19.104 42.667-42.667 42.667s-42.667-19.104-42.667-42.667v-536.992l-97.835 97.824c-16.661 16.661-43.68 16.661-60.331 0-16.661-16.661-16.661-43.68 0-60.331l170.667-170.667c8-8 18.848-12.501 30.165-12.501s22.165 4.501 30.165 12.501l170.667 170.667c16.672 16.651 16.672 43.68 0 60.331z" />
<glyph unicode="&#xe916;" glyph-name="outbox" d="M268.501 631.157c-16.661 16.661-16.661 43.68 0 60.341l213.333 213.333c16.661 16.661 43.68 16.661 60.331 0l213.333-213.333c16.661-16.661 16.661-43.68 0-60.341-8.331-8.331-19.253-12.491-30.165-12.491s-21.835 4.16-30.165 12.491l-140.501 140.501v-494.325c0-23.563-19.104-42.667-42.667-42.667s-42.667 19.104-42.667 42.667v494.325l-140.501-140.501c-16.651-16.651-43.68-16.651-60.331 0zM938.667 320c-23.563 0-42.667-19.104-42.667-42.667v-170.667c0-23.52-18.635-42.667-41.547-42.667h-683.787c-23.531 0-42.667 19.147-42.667 42.667v170.667c0 23.563-19.104 42.667-42.667 42.667s-42.667-19.104-42.667-42.667v-170.667c0-17.269 3.381-34.016 10.069-49.835 6.443-15.253 15.68-28.939 27.413-40.661 11.744-11.755 25.429-20.981 40.672-27.413 15.819-6.699 32.587-10.091 49.845-10.091h683.787c17.173 0 33.867 3.413 49.579 10.144 15.125 6.496 28.693 15.755 40.331 27.541 11.595 11.755 20.683 25.44 27.051 40.661 6.592 15.755 9.92 32.469 9.92 49.653v170.667c0 23.563-19.104 42.667-42.667 42.667z" />
<glyph unicode="&#xe917;" glyph-name="inbox" d="M268.501 460.491c-16.661 16.661-16.661 43.68 0 60.341s43.68 16.661 60.341 0l140.491-140.501v494.336c0 23.552 19.115 42.667 42.667 42.667 23.563 0 42.667-19.115 42.667-42.667v-494.325l140.501 140.491c16.661 16.661 43.68 16.661 60.331 0 16.661-16.661 16.661-43.68 0-60.341l-213.333-213.333c-8.331-8.32-19.253-12.501-30.165-12.501-10.923 0-21.835 4.181-30.176 12.501l-213.323 213.333zM938.667 319.989c-23.563 0-42.667-19.104-42.667-42.656v-170.677c0-23.52-18.635-42.656-41.547-42.656h-683.787c-23.52 0-42.667 19.136-42.667 42.656v170.677c0 23.552-19.104 42.656-42.656 42.656-23.573 0-42.667-19.104-42.667-42.656v-170.677c0-17.259 3.392-34.016 10.069-49.835 6.443-15.253 15.669-28.928 27.413-40.672 11.744-11.733 25.429-20.96 40.672-27.403 15.808-6.709 32.565-10.080 49.835-10.080h683.787c17.173 0 33.856 3.413 49.579 10.155 15.125 6.475 28.693 15.744 40.32 27.531 11.605 11.744 20.693 25.429 27.051 40.661 6.581 15.755 9.92 32.459 9.92 49.643v170.677c0.011 23.552-19.093 42.656-42.656 42.656z" />
<glyph unicode="&#xe918;" glyph-name="monitor" d="M853.333 874.667h-682.667c-70.72 0-128-57.28-128-128v-426.667c0-70.72 57.28-128 128-128h298.667v-85.333h-128c-23.563 0-42.667-19.104-42.667-42.667s19.104-42.667 42.667-42.667h341.333c23.563 0 42.667 19.104 42.667 42.667s-19.104 42.667-42.667 42.667h-128v85.333h298.667c70.72 0 128 57.28 128 128v426.667c0 70.72-57.28 128-128 128zM896 320c0-23.573-19.093-42.667-42.667-42.667h-682.667c-23.573 0-42.667 19.093-42.667 42.667v426.667c0 23.573 19.093 42.667 42.667 42.667h682.667c23.573 0 42.667-19.093 42.667-42.667v-426.667z" />
<glyph unicode="&#xe919;" glyph-name="server" d="M512 917.333c-226.037 0-469.333-53.408-469.333-170.667v-597.333c0-117.259 243.296-170.667 469.333-170.667s469.333 53.408 469.333 170.667v597.333c0 117.259-243.296 170.667-469.333 170.667zM512 832c247.349 0 375.253-61.184 383.851-85.333-8.597-24.149-136.501-85.333-383.851-85.333s-375.253 61.184-383.861 85.333c8.608 24.149 136.512 85.333 383.861 85.333zM128 642.955c90.805-45.504 240.821-66.955 384-66.955 143.189 0 293.205 21.472 384.011 66.976l0.021-194.443c-6.763-23.712-134.709-85.877-384.032-85.877-249.6 0-377.557 62.304-384 85.333v194.965zM512 64c-249.6 0-377.557 62.304-384 85.333v194.955c90.805-45.504 240.821-66.955 384-66.955 143.211 0 293.248 21.472 384.043 66.997l0.021-194.379c-6.507-23.648-134.464-85.952-384.064-85.952z" />
<glyph unicode="&#xe91a;" glyph-name="power" d="M512-21.333c-57.579 0-113.461 11.296-166.091 33.547-25.291 10.699-49.675 23.936-72.491 39.349-22.581 15.253-43.819 32.768-63.115 52.075-19.307 19.296-36.821 40.533-52.075 63.115-15.413 22.816-28.661 47.2-39.339 72.491-22.261 52.629-33.557 108.512-33.557 166.091s11.296 113.461 33.557 166.091c10.688 25.291 23.925 49.675 39.339 72.491 15.253 22.581 32.768 43.819 52.075 63.115 16.661 16.661 43.68 16.661 60.341 0s16.661-43.68 0-60.341c-31.36-31.349-55.979-67.861-73.173-108.501-17.781-42.059-26.805-86.752-26.805-132.853 0-46.091 9.024-90.795 26.805-132.853 17.195-40.64 41.813-77.141 73.173-108.501 31.349-31.36 67.861-55.979 108.501-73.173 42.059-17.781 86.763-26.805 132.853-26.805s90.795 9.024 132.853 26.805c40.64 17.195 77.141 41.813 108.501 73.173 31.36 31.349 55.979 67.861 73.173 108.501 17.781 42.059 26.805 86.763 26.805 132.853 0 46.101-9.024 90.795-26.805 132.853-17.195 40.64-41.813 77.141-73.173 108.512-16.661 16.661-16.661 43.68 0 60.331 16.661 16.661 43.68 16.661 60.341 0 19.307-19.296 36.821-40.533 52.075-63.115 15.413-22.816 28.651-47.2 39.339-72.491 22.261-52.629 33.557-108.512 33.557-166.091s-11.296-113.461-33.557-166.091c-10.699-25.291-23.925-49.675-39.339-72.491-15.253-22.581-32.768-43.819-52.075-63.115-19.296-19.307-40.533-36.821-63.115-52.075-22.816-15.413-47.2-28.661-72.491-39.349-52.629-22.251-108.512-33.547-166.091-33.547zM554.667 448v426.667c0 23.563-19.104 42.667-42.667 42.667s-42.667-19.104-42.667-42.667v-426.667c0-23.563 19.104-42.667 42.667-42.667s42.667 19.104 42.667 42.667z" />
<glyph unicode="&#xe91b;" glyph-name="pause" d="M341.333 832c-70.688 0-128-57.312-128-128v-512c0-70.688 57.312-128 128-128s128 57.312 128 128v512c0 70.688-57.312 128-128 128zM384 192c0-23.563-19.104-42.667-42.667-42.667s-42.667 19.104-42.667 42.667v512c0 23.563 19.104 42.667 42.667 42.667s42.667-19.104 42.667-42.667v-512zM682.667 832c-70.688 0-128-57.312-128-128v-512c0-70.688 57.312-128 128-128s128 57.312 128 128v512c0 70.688-57.312 128-128 128zM725.333 192c0-23.563-19.104-42.667-42.667-42.667s-42.667 19.104-42.667 42.667v512c0 23.563 19.104 42.667 42.667 42.667s42.667-19.104 42.667-42.667v-512z" />
<glyph unicode="&#xe91c;" glyph-name="play2" d="M256 681.28l388.811-233.28-388.811-233.28v466.56zM170.667 832v-768l640 384-640 384z" />
<glyph unicode="&#xe91d;" glyph-name="volume" d="M128 618.667c-70.72 0-128-59.061-128-129.781v-83.552c0-70.72 57.28-128 128-128h85.333l213.333-213.333v768l-213.333-213.333h-85.333zM341.323 627.659l0.011 1.675v-359.339l-92.672 92.672h-120.661c-23.531 0-42.667 19.136-42.667 42.667v83.552c0 24.096 19.541 44.448 42.667 44.448h120.661l92.661 94.325zM750.443 186.624c-7.456 0-14.997 1.952-21.856 6.048-20.224 12.096-26.827 38.283-14.731 58.507 17.397 29.109 30.848 60.373 39.957 92.928 9.408 33.6 14.176 68.523 14.176 103.787s-4.768 70.187-14.176 103.787c-9.109 32.555-22.56 63.819-39.957 92.928-12.096 20.224-5.504 46.421 14.731 58.507 20.224 12.096 46.421 5.504 58.507-14.731 21.28-35.605 37.728-73.856 48.885-113.696 11.52-41.077 17.355-83.744 17.355-126.784s-5.835-85.707-17.344-126.805c-11.157-39.84-27.605-78.091-48.885-113.696-7.989-13.365-22.144-20.779-36.661-20.779zM878.133 69.568c-8.256 0-16.619 2.4-23.968 7.392-19.477 13.259-24.523 39.797-11.264 59.285 62.656 92.064 95.765 199.829 95.765 311.659s-33.109 219.595-95.765 311.659c-13.259 19.477-8.224 46.016 11.264 59.285 19.477 13.248 46.016 8.213 59.285-11.275 72.32-106.272 110.549-230.645 110.549-359.669s-38.229-253.397-110.549-359.669c-8.267-12.128-21.675-18.667-35.317-18.667zM620.096 306.123c-5.515 0-11.115 1.077-16.512 3.339-21.728 9.131-31.936 34.133-22.805 55.861 10.987 26.155 16.555 53.941 16.555 82.581 0 28.821-5.632 56.747-16.747 83.019-9.173 21.707 0.981 46.741 22.677 55.925 21.707 9.173 46.741-0.981 55.915-22.677 15.584-36.843 23.488-75.957 23.488-116.267 0-40.064-7.808-78.965-23.221-115.637-6.859-16.32-22.688-26.144-39.349-26.144z" />
<glyph unicode="&#xe91e;" glyph-name="microphone" d="M853.333 533.333v-85.333c0-174.059-130.293-317.685-298.667-338.688v-87.979h128c23.563 0 42.667-19.104 42.667-42.667s-19.104-42.667-42.667-42.667h-341.333c-23.563 0-42.667 19.104-42.667 42.667s19.104 42.667 42.667 42.667h128v87.979c-168.373 21.003-298.667 164.629-298.667 338.688v85.333c0 23.563 19.104 42.667 42.667 42.667s42.667-19.104 42.667-42.667v-85.333c0-141.387 114.613-256 256-256s256 114.613 256 256v85.333c0 23.563 19.104 42.667 42.667 42.667s42.667-19.104 42.667-42.667zM512 960c-94.261 0-170.667-76.405-170.667-170.667v-341.333c0-94.261 76.405-170.667 170.667-170.667s170.667 76.405 170.667 170.667v341.333c0 94.261-76.405 170.667-170.667 170.667zM512 362.667c-47.125 0-85.333 38.208-85.333 85.333v341.333c0 47.125 38.208 85.333 85.333 85.333s85.333-38.208 85.333-85.333v-341.333c0-47.125-38.208-85.333-85.333-85.333z" />
<glyph unicode="&#xe91f;" glyph-name="bell" d="M1024 149.333c-85.333 85.333-128 213.333-170.667 426.667-36.971 184.821-152.853 341.333-341.333 341.333s-304.373-156.512-341.333-341.333c-42.667-213.333-85.333-341.333-170.667-426.667h391.435c-4.725-13.365-7.435-27.691-7.435-42.667 0-70.688 57.312-128 128-128s128 57.312 128 128c0 14.976-2.709 29.301-7.435 42.667h391.435zM254.347 559.275c12.789 63.979 69.195 272.725 257.653 272.725s244.864-208.757 257.653-272.725c26.443-132.256 53.653-238.325 94.112-324.608h-703.541c40.459 86.283 67.669 192.352 94.123 324.608zM554.667 106.667c0-23.531-19.136-42.667-42.667-42.667s-42.667 19.136-42.667 42.667 19.136 42.667 42.667 42.667 42.667-19.136 42.667-42.667z" />
<glyph unicode="&#xe920;" glyph-name="plus" d="M896 490.667h-341.333v341.333c0 23.563-19.104 42.667-42.667 42.667s-42.667-19.104-42.667-42.667v-341.333h-341.333c-23.563 0-42.667-19.104-42.667-42.667s19.104-42.667 42.667-42.667h341.333v-341.333c0-23.563 19.104-42.667 42.667-42.667s42.667 19.104 42.667 42.667v341.333h341.333c23.563 0 42.667 19.104 42.667 42.667s-19.104 42.667-42.667 42.667z" />
<glyph unicode="&#xe921;" glyph-name="circle-add" d="M512 917.333c-259.2 0-469.333-210.123-469.333-469.333s210.133-469.333 469.333-469.333 469.333 210.123 469.333 469.333-210.133 469.333-469.333 469.333zM512 64c-212.075 0-384 171.925-384 384s171.925 384 384 384 384-171.925 384-384-171.925-384-384-384zM682.667 490.667h-128v128c0 23.563-19.104 42.667-42.667 42.667s-42.667-19.104-42.667-42.667v-128h-128c-23.563 0-42.667-19.104-42.667-42.667s19.104-42.667 42.667-42.667h128v-128c0-23.563 19.104-42.667 42.667-42.667s42.667 19.104 42.667 42.667v128h128c23.563 0 42.667 19.104 42.667 42.667s-19.104 42.667-42.667 42.667z" />
<glyph unicode="&#xe922;" glyph-name="circle-minus" d="M512 917.333c-259.2 0-469.333-210.123-469.333-469.333s210.133-469.333 469.333-469.333 469.333 210.123 469.333 469.333-210.133 469.333-469.333 469.333zM512 64c-212.075 0-384 171.925-384 384s171.925 384 384 384 384-171.925 384-384-171.925-384-384-384zM682.667 490.667h-341.333c-23.563 0-42.667-19.104-42.667-42.667s19.104-42.667 42.667-42.667h341.333c23.563 0 42.667 19.104 42.667 42.667s-19.104 42.667-42.667 42.667z" />
<glyph unicode="&#xe923;" glyph-name="cross" d="M572.341 448l268.491 268.501c16.661 16.661 16.661 43.68 0 60.331-16.661 16.661-43.669 16.661-60.331 0l-268.501-268.491-268.491 268.491c-16.661 16.661-43.68 16.661-60.341 0s-16.661-43.68 0-60.331l268.501-268.501-268.501-268.501c-16.661-16.661-16.661-43.68 0-60.331 8.331-8.331 19.253-12.501 30.165-12.501s21.845 4.171 30.176 12.501l268.491 268.491 268.501-268.491c8.331-8.331 19.253-12.501 30.165-12.501s21.845 4.171 30.165 12.501c16.661 16.661 16.661 43.68 0 60.331l-268.491 268.501z" />
<glyph unicode="&#xe924;" glyph-name="circle-cross" d="M512 917.333c-259.2 0-469.333-210.123-469.333-469.333s210.133-469.333 469.333-469.333 469.333 210.123 469.333 469.333-210.133 469.333-469.333 469.333zM512 64c-212.075 0-384 171.925-384 384s171.925 384 384 384 384-171.925 384-384-171.925-384-384-384zM662.859 598.837c-16.661 16.661-43.701 16.661-60.352 0l-90.507-90.496-90.496 90.485c-16.661 16.661-43.691 16.661-60.352 0s-16.661-43.691 0-60.331l90.507-90.496-90.507-90.496c-16.661-16.661-16.661-43.691 0-60.331 16.661-16.661 43.691-16.661 60.352 0l90.496 90.485 90.496-90.485c16.661-16.661 43.691-16.661 60.352 0s16.661 43.701 0 60.331l-90.507 90.496 90.507 90.496c16.661 16.672 16.661 43.691 0.011 60.341z" />
<glyph unicode="&#xe925;" glyph-name="check" d="M384 149.333c-11.317 0-22.165 4.491-30.165 12.491l-256 256.011c-16.661 16.661-16.661 43.669 0 60.331s43.68 16.661 60.331 0l225.835-225.835 481.835 481.835c16.661 16.661 43.68 16.661 60.331 0 16.661-16.661 16.661-43.68 0-60.341l-512-512c-8-8-18.848-12.491-30.165-12.491z" />
<glyph unicode="&#xe926;" glyph-name="circle-check" d="M512 917.333c-259.2 0-469.333-210.123-469.333-469.333s210.133-469.333 469.333-469.333 469.333 210.123 469.333 469.333-210.133 469.333-469.333 469.333zM512 64c-212.075 0-384 171.925-384 384s171.925 384 384 384 384-171.925 384-384-171.925-384-384-384zM625.355 563.52l-150.859-150.848-60.331 60.331c-16.661 16.661-43.669 16.661-60.341 0-16.661-16.661-16.661-43.68 0-60.352l90.496-90.464c16.661-16.661 43.691-16.661 60.341 0l181.024 181.013c16.661 16.661 16.683 43.669 0.011 60.341-16.651 16.629-43.68 16.629-60.341-0.021z" />
<glyph unicode="&#xe927;" glyph-name="record" d="M512 832c-212.075 0-384-171.925-384-384s171.925-384 384-384 384 171.925 384 384-171.925 384-384 384zM512 149.333c-164.949 0-298.667 133.717-298.667 298.667s133.717 298.667 298.667 298.667 298.667-133.717 298.667-298.667-133.717-298.667-298.667-298.667z" />
<glyph unicode="&#xe928;" glyph-name="search" d="M968.843 51.499l-242.144 242.144c52.555 65.696 83.968 149.024 83.968 239.691 0 212.075-171.915 384-384 384-212.075 0-384-171.925-384-384s171.925-384 384-384c90.667 0 173.995 31.424 239.691 83.979l242.144-242.144c8.331-8.331 19.253-12.501 30.165-12.501 10.923 0 21.845 4.171 30.176 12.501 16.661 16.651 16.661 43.68 0 60.331zM426.667 234.667c-164.949 0-298.667 133.717-298.667 298.667s133.717 298.667 298.667 298.667c164.96 0 298.667-133.717 298.667-298.667s-133.707-298.667-298.667-298.667z" />
<glyph unicode="&#xe929;" glyph-name="zoom-in2" d="M968.843 51.499l-242.144 242.144c52.555 65.696 83.968 149.024 83.968 239.691 0 212.075-171.915 384-384 384-212.075 0-384-171.925-384-384s171.925-384 384-384c90.667 0 173.995 31.424 239.691 83.979l242.144-242.144c8.331-8.331 19.253-12.501 30.165-12.501 10.923 0 21.845 4.171 30.176 12.501 16.661 16.651 16.661 43.68 0 60.331zM426.667 234.667c-164.949 0-298.667 133.717-298.667 298.667s133.717 298.667 298.667 298.667c164.96 0 298.667-133.717 298.667-298.667s-133.707-298.667-298.667-298.667zM597.333 533.333c0-23.563-19.093-42.667-42.667-42.667h-85.333v-85.333c0-23.563-19.093-42.667-42.667-42.667-23.563 0-42.667 19.104-42.667 42.667v85.333h-85.333c-23.563 0-42.667 19.104-42.667 42.667s19.104 42.667 42.667 42.667h85.333v85.333c0 23.563 19.104 42.667 42.667 42.667 23.573 0 42.667-19.104 42.667-42.667v-85.333h85.333c23.573 0 42.667-19.104 42.667-42.667z" />
<glyph unicode="&#xe92a;" glyph-name="zoom-out2" d="M968.843 51.499l-242.144 242.144c52.555 65.696 83.968 149.024 83.968 239.691 0 212.075-171.915 384-384 384-212.075 0-384-171.925-384-384s171.925-384 384-384c90.667 0 173.995 31.424 239.691 83.968l242.144-242.133c8.331-8.331 19.253-12.501 30.165-12.501 10.923 0 21.845 4.171 30.176 12.501 16.661 16.651 16.661 43.68 0 60.331zM426.667 234.667c-164.949 0-298.667 133.717-298.667 298.667s133.717 298.667 298.667 298.667c164.96 0 298.667-133.717 298.667-298.667s-133.707-298.667-298.667-298.667zM597.333 533.333c0-23.563-19.093-42.667-42.667-42.667h-256c-23.563 0-42.667 19.104-42.667 42.667s19.104 42.667 42.667 42.667h256c23.573 0 42.667-19.104 42.667-42.667z" />
<glyph unicode="&#xe92b;" glyph-name="paper-clip" d="M341.333-3.893c-38.773 0-76.576 7.36-112.363 21.877-37.077 15.040-70.325 37.109-98.827 65.6s-50.571 61.749-65.6 98.827c-14.517 35.787-21.877 73.589-21.877 112.363s7.36 76.587 21.877 112.373c15.029 37.077 37.109 70.325 65.6 98.827l0.075 0.075 393.547 391.659c20.288 20.277 43.968 36 70.379 46.709 25.483 10.336 52.395 15.584 80 15.584 27.595 0 54.507-5.248 80-15.584 26.411-10.709 50.080-26.432 70.379-46.709 20.288-20.288 36-43.968 46.72-70.379 10.336-25.493 15.573-52.405 15.573-80.011s-5.237-54.517-15.573-80.011c-10.72-26.411-26.432-50.080-46.72-70.379l-392.683-392.661c-12.213-12.213-26.453-21.664-42.368-28.128-15.339-6.219-31.541-9.376-48.149-9.376s-32.8 3.157-48.149 9.376c-15.904 6.453-30.155 15.915-42.368 28.128-12.213 12.203-21.664 26.453-28.117 42.357-6.197 15.349-9.355 31.541-9.355 48.149s3.157 32.811 9.376 48.149c6.443 15.904 15.904 30.165 28.117 42.379l362.037 362.027c16.661 16.661 43.68 16.661 60.341 0s16.661-43.68 0-60.341l-362.037-362.027c-8.064-8.075-12.501-18.795-12.501-30.187s4.437-22.101 12.501-30.165c8.053-8.064 18.773-12.501 30.165-12.501s22.112 4.437 30.165 12.501l392.683 392.672c24.053 24.053 37.301 56.032 37.301 90.037s-13.248 65.995-37.301 90.037c-24.043 24.064-56.021 37.312-90.037 37.312s-66.005-13.248-90.037-37.301l-0.075-0.075-393.579-391.691c-20.363-20.373-36.128-44.107-46.848-70.528-10.347-25.547-15.605-52.576-15.605-80.299s5.259-54.741 15.616-80.288c10.731-26.443 26.485-50.176 46.88-70.549 20.373-20.373 44.117-36.149 70.539-46.869 25.557-10.368 52.576-15.627 80.299-15.627s54.752 5.259 80.299 15.627c26.443 10.72 50.165 26.485 70.549 46.869l392.213 392.213c16.661 16.661 43.68 16.661 60.331 0 16.661-16.661 16.661-43.68 0-60.341l-392.213-392.213c-28.491-28.491-61.739-50.56-98.827-65.6-35.765-14.528-73.579-21.888-112.352-21.888z" />
<glyph unicode="&#xe92c;" glyph-name="tag" d="M490.048 832l393.451-393.472c10.88-10.859 12.501-23.563 12.501-30.165 0-6.592-1.621-19.296-12.501-30.165l-301.696-301.696c-10.88-10.88-23.573-12.501-30.165-12.501-6.603 0-19.307 1.621-30.176 12.501l-393.461 393.461v362.037h362.048zM525.387 917.333h-482.72v-482.72l418.453-418.453c25.003-24.992 57.76-37.493 90.517-37.493 32.747 0 65.515 12.501 90.507 37.493l301.696 301.696c49.984 49.995 49.984 131.029 0 181.024l-418.453 418.453zM362.667 704c-58.912 0-106.667-47.765-106.667-106.667s47.755-106.667 106.667-106.667c58.901 0 106.667 47.765 106.667 106.667s-47.755 106.667-106.667 106.667zM362.667 576c-11.776 0-21.333 9.557-21.333 21.333s9.557 21.333 21.333 21.333 21.333-9.557 21.333-21.333-9.547-21.333-21.333-21.333z" />
<glyph unicode="&#xe92d;" glyph-name="ribbon" d="M725.333 832c23.531 0 42.667-19.136 42.667-42.667v-640l-256 192-256-192v640c0 23.531 19.136 42.667 42.667 42.667h426.667zM725.333 917.333h-426.667c-70.72 0-128-57.28-128-128v-810.667l341.333 256 341.333-256v810.667c0 70.72-57.28 128-128 128v0z" />
<glyph unicode="&#xe92e;" glyph-name="camera" d="M896 746.677h-128l-85.333 127.989h-341.333l-85.333-128h-128c-70.72 0-128-57.963-128-128.661v-468.672c0-70.72 57.28-128 128-128h768c70.72 0 128 56.629 128 127.339v468.672c0 70.72-57.28 129.333-128 129.333zM938.667 148.672c0-23.584-18.741-42.005-42.667-42.005h-768c-23.531 0-42.667 19.136-42.667 42.667v468.672c0 23.883 19.136 43.328 42.667 43.328h173.664l85.333 128h251.499l83.829-128h173.675c23.125 0 42.667-20.149 42.667-44v-468.661zM512 618.667c-117.824 0-213.333-95.52-213.333-213.333s95.52-213.333 213.333-213.333c117.824 0 213.333 95.509 213.333 213.333s-95.509 213.333-213.333 213.333zM512 277.333c-70.581 0-128 57.419-128 128s57.408 128 128 128c70.581 0 128-57.419 128-128s-57.429-128-128-128z" />
<glyph unicode="&#xe92f;" glyph-name="toggle" d="M682.667 789.333h-341.333c-188.48 0-341.333-152.853-341.333-341.333s152.853-341.333 341.333-341.333h341.333c188.48 0 341.333 152.853 341.333 341.333s-152.853 341.333-341.333 341.333zM682.667 192h-341.333c-141.387 0-256 114.613-256 256s114.613 256 256 256h341.333c141.387 0 256-114.613 256-256s-114.613-256-256-256zM341.333 618.667c-94.251 0-170.667-76.416-170.667-170.667s76.416-170.667 170.667-170.667 170.667 76.416 170.667 170.667-76.416 170.667-170.667 170.667zM341.333 362.667c-47.125 0-85.333 38.208-85.333 85.333s38.208 85.333 85.333 85.333 85.333-38.208 85.333-85.333-38.208-85.333-85.333-85.333z" />
<glyph unicode="&#xe930;" glyph-name="video" d="M725.333 541.099v77.568c0 70.72-57.28 128-128 128h-469.333c-70.72 0-128-57.28-128-128v-341.333c0-70.72 57.28-128 128-128h469.333c70.72 0 128 57.28 128 128v77.568l298.667-162.901v512l-298.667-162.901zM640 277.333c0-23.573-19.093-42.667-42.667-42.667h-469.333c-23.573 0-42.667 19.093-42.667 42.667v341.333c0 23.573 19.093 42.667 42.667 42.667h469.333c23.573 0 42.667-19.093 42.667-42.667v-341.333zM938.667 335.755l-205.792 112.245 205.792 112.245v-224.491z" />
<glyph unicode="&#xe931;" glyph-name="battery" d="M896 618.667c0 70.72-57.28 128-128 128h-640c-70.72 0-128-57.28-128-128v-341.333c0-70.72 57.28-128 128-128h640c70.72 0 128 57.28 128 128 70.72 0 128 57.28 128 128v85.333c0 70.72-57.28 128-128 128zM810.667 277.333c0-23.573-19.093-42.667-42.667-42.667h-640c-23.573 0-42.667 19.093-42.667 42.667v341.333c0 23.573 19.093 42.667 42.667 42.667h640c23.573 0 42.667-19.093 42.667-42.667v-341.333zM938.667 405.333c0-23.573-19.093-42.667-42.667-42.667v170.667c23.573 0 42.667-19.093 42.667-42.667v-85.333z" />
<glyph unicode="&#xe932;" glyph-name="mail" d="M853.333 832h-682.667c-70.688 0-128-57.312-128-128v-512c0-70.688 57.312-128 128-128h682.667c70.688 0 128 57.312 128 128v512c0 70.688-57.312 128-128 128zM853.333 746.667c4.928 0 9.664-0.832 14.059-2.379l-355.392-284.32-355.392 284.32c4.395 1.547 9.131 2.379 14.059 2.379h682.667zM853.333 149.333h-682.667c-23.563 0-42.667 19.104-42.667 42.667v465.899l357.344-285.877c7.787-6.24 17.216-9.355 26.656-9.355s18.869 3.115 26.656 9.355l357.344 285.877v-465.899c0-23.563-19.104-42.667-42.667-42.667z" />
<glyph unicode="&#xe933;" glyph-name="cog" d="M896 320c70.688 0 128 57.312 128 128s-57.312 128-128 128h-21.856c-4.544 12.843-9.739 25.376-15.573 37.557l15.467 15.456c49.984 49.995 49.984 131.029 0 181.024-49.995 49.984-131.029 49.984-181.024 0l-15.456-15.467c-12.192 5.835-24.715 11.029-37.557 15.573v21.856c0 70.688-57.312 128-128 128s-128-57.312-128-128v-21.856c-12.843-4.544-25.376-9.739-37.557-15.573l-15.456 15.467c-49.995 49.984-131.029 49.984-181.024 0-49.984-49.995-49.984-131.029 0-181.024l15.467-15.456c-5.835-12.192-11.029-24.715-15.573-37.557h-21.856c-70.688 0-128-57.312-128-128s57.312-128 128-128h21.856c4.544-12.843 9.739-25.376 15.573-37.557l-15.467-15.456c-49.984-49.995-49.984-131.029 0-181.024 49.995-49.984 131.029-49.984 181.024 0l15.456 15.467c12.192-5.835 24.715-11.029 37.557-15.573v-21.856c0-70.688 57.312-128 128-128s128 57.312 128 128v21.856c12.843 4.544 25.376 9.739 37.557 15.573l15.456-15.467c49.995-49.984 131.029-49.984 181.024 0 49.984 49.995 49.984 131.029 0 181.024l-15.467 15.456c5.835 12.192 11.029 24.715 15.573 37.557h21.856zM807.648 405.333c-7.243-50.603-27.168-97.109-56.437-136.203l62.485-62.485c16.661-16.661 16.661-43.691 0-60.341s-43.68-16.661-60.341 0l-1.664 1.675-60.821 60.811c-39.093-29.269-85.6-49.195-136.203-56.437v-88.352c0-23.563-19.104-42.667-42.667-42.667s-42.667 19.104-42.667 42.667v88.352c-50.603 7.243-97.109 27.168-136.203 56.437l-62.485-62.485c-16.661-16.661-43.691-16.661-60.341 0s-16.661 43.68 0 60.341l1.675 1.664 60.811 60.821c-29.269 39.093-49.195 85.6-56.437 136.203h-88.352c-23.563 0-42.667 19.104-42.667 42.667s19.104 42.667 42.667 42.667h88.352c7.243 50.603 27.168 97.109 56.437 136.203l-62.485 62.485c-16.661 16.661-16.661 43.691 0 60.341s43.68 16.661 60.341 0l1.664-1.675 60.821-60.811c39.093 29.269 85.589 49.195 136.203 56.437v88.352c0 23.563 19.104 42.667 42.667 42.667s42.667-19.104 42.667-42.667v-88.352c50.603-7.243 97.109-27.168 136.203-56.437l62.485 62.485c16.661 16.661 43.691 16.661 60.341 0s16.661-43.68 0-60.341l-1.675-1.664-60.811-60.821c29.269-39.093 49.195-85.589 56.437-136.203h88.352c23.563 0 42.667-19.104 42.667-42.667s-19.104-42.667-42.667-42.667h-88.352zM512 618.667c-94.261 0-170.667-76.405-170.667-170.667s76.405-170.667 170.667-170.667 170.667 76.405 170.667 170.667-76.405 170.667-170.667 170.667zM512 362.667c-47.125 0-85.333 38.208-85.333 85.333s38.208 85.333 85.333 85.333 85.333-38.208 85.333-85.333-38.208-85.333-85.333-85.333z" />
<glyph unicode="&#xe934;" glyph-name="location-2" d="M512 917.333c-259.2 0-469.333-210.133-469.333-469.333 0-259.211 210.133-469.333 469.333-469.333 259.211 0 469.333 210.123 469.333 469.333 0 259.2-210.123 469.333-469.333 469.333zM554.667 66.421v125.579c0 23.563-19.104 42.667-42.667 42.667-23.552 0-42.667-19.104-42.667-42.667v-125.579c-177.973 19.68-319.232 160.928-338.901 338.912h125.568c23.563 0 42.667 19.104 42.667 42.667 0 23.552-19.104 42.667-42.667 42.667h-125.568c19.669 177.973 160.928 319.232 338.901 338.901v-125.568c0-23.552 19.115-42.667 42.667-42.667 23.563 0 42.667 19.115 42.667 42.667v125.568c177.984-19.669 319.232-160.928 338.912-338.901h-125.579c-23.563 0-42.667-19.115-42.667-42.667 0-23.563 19.104-42.667 42.667-42.667h125.579c-19.68-177.984-160.928-319.232-338.912-338.912z" />
<glyph unicode="&#xe935;" glyph-name="speech-bubble" d="M853.333 832c23.531 0 42.667-19.136 42.667-42.667v-469.333c0-23.52-19.136-42.656-42.667-42.656h-368.672l-185.995-132.853v132.853h-128c-23.541 0-42.667 19.136-42.667 42.656v469.333c0 23.541 19.136 42.667 42.667 42.667h682.667zM853.333 917.333h-682.667c-70.688 0-128-57.312-128-128v-469.333c0-70.688 57.312-128 128-128h42.667v-213.333l298.667 213.333h341.333c70.688 0 128 57.312 128 128v469.333c0 70.688-57.312 128-128 128v0z" />
<glyph unicode="&#xe936;" glyph-name="heart" d="M934.379 805.728c-99.979 99.979-262.059 99.979-362.016 0l-60.363-60.341-60.352 60.32c-99.979 99.979-262.059 99.979-362.016 0-99.979-99.968-99.979-262.048 0-362.027l422.368-422.347 422.368 422.347c99.989 99.979 99.989 262.069 0.011 362.048zM753.355 383.349l-241.355-241.355-362.016 362.016c-66.645 66.645-66.645 174.709 0 241.376 66.667 66.645 174.709 66.645 241.355 0l120.661-120.683 120.683 120.683c66.645 66.645 174.709 66.645 241.355 0 66.645-66.667 66.645-174.709 0-241.376l-120.683-120.661z" />
<glyph unicode="&#xe937;" glyph-name="star2" d="M511.989 663.904l53.355-169.547h165.237l-132.757-89.216 52.171-157.856-137.685 101.109-138.133-99.872 52.128 157.333-133.376 88.512h165.717l53.344 169.536zM511.989 934.709l-115.349-355.008h-373.28l301.995-209.824-115.36-346.773 301.995 219.168 302.005-220.939-115.36 348.811 302.005 209.557h-373.301l-115.349 355.008z" />
<glyph unicode="&#xe938;" glyph-name="lock" d="M853.333 490.667h-85.333v170.667c0 141.387-114.613 256-256 256s-256-114.613-256-256v-170.667h-85.333c-70.72 0-128-57.28-128-128v-256c0-70.72 57.28-128 128-128h682.667c70.72 0 128 57.28 128 128v256c0 70.72-57.28 128-128 128zM341.333 661.333c0 94.251 76.416 170.667 170.667 170.667s170.667-76.416 170.667-170.667v-170.667h-341.333v170.667zM896 106.667c0-23.573-19.093-42.667-42.667-42.667h-682.667c-23.573 0-42.667 19.093-42.667 42.667v256c0 23.573 19.093 42.667 42.667 42.667h682.667c23.573 0 42.667-19.093 42.667-42.667v-256z" />
<glyph unicode="&#xe939;" glyph-name="unlock" d="M853.333 490.667h-512v170.667c0 94.251 76.416 170.667 170.667 170.667s170.667-76.416 170.667-170.667v-42.667c0-23.563 19.104-42.667 42.667-42.667s42.667 19.104 42.667 42.667v42.667c0 141.387-114.613 256-256 256s-256-114.613-256-256v-170.667h-85.333c-70.72 0-128-57.28-128-128v-256c0-70.72 57.28-128 128-128h682.667c70.72 0 128 57.28 128 128v256c0 70.72-57.28 128-128 128zM896 106.667c0-23.573-19.093-42.667-42.667-42.667h-682.667c-23.573 0-42.667 19.093-42.667 42.667v256c0 23.573 19.093 42.667 42.667 42.667h682.667c23.573 0 42.667-19.093 42.667-42.667v-256z" />
<glyph unicode="&#xe93a;" glyph-name="clock2" d="M512 917.333c-259.211 0-469.333-210.133-469.333-469.333 0-259.211 210.123-469.333 469.333-469.333s469.333 210.123 469.333 469.333c0 259.2-210.123 469.333-469.333 469.333zM512 64c-212.075 0-384 171.915-384 384 0 212.075 171.925 384 384 384s384-171.925 384-384c0-212.085-171.925-384-384-384zM670.165 350.165c16.661-16.661 16.661-43.68 0-60.341-8.32-8.32-19.253-12.491-30.165-12.491-10.912-0.011-21.835 4.16-30.165 12.491l-128 128c-8 8-12.501 18.848-12.501 30.176v256c0 23.563 19.104 42.667 42.667 42.667s42.667-19.104 42.667-42.667v-238.336l115.499-115.499z" />
<glyph unicode="&#xe93b;" glyph-name="pie-graph" d="M512 917.333c-259.2 0-469.333-210.133-469.333-469.333 0-259.211 210.133-469.333 469.333-469.333 259.211 0 469.333 210.123 469.333 469.333 0 259.2-210.123 469.333-469.333 469.333zM893.579 490.667h-338.912v338.901c177.984-19.669 319.232-160.928 338.912-338.901zM512 64c-212.075 0-384 171.925-384 384 0 197.653 149.344 360.352 341.333 381.568v-424.235h424.256c-21.237-191.979-183.947-341.333-381.589-341.333z" />
<glyph unicode="&#xe93c;" glyph-name="watch" d="M768 734.144v97.856c0 70.72-57.28 128-128 128h-256c-70.72 0-128-57.28-128-128v-97.856c-78.539-70.315-128-172.437-128-286.144s49.461-215.829 128-286.144v-97.856c0-70.72 57.28-128 128-128h256c70.72 0 128 57.28 128 128v97.856c78.539 70.315 128 172.437 128 286.144s-49.461 215.829-128 286.144zM341.333 832c0 23.573 19.093 42.667 42.667 42.667h256c23.573 0 42.667-19.093 42.667-42.667v-40.011c-51.413 25.568-109.344 40.011-170.667 40.011s-119.243-14.443-170.667-40.011v40.011zM682.667 64c0-23.573-19.093-42.667-42.667-42.667h-256c-23.573 0-42.667 19.093-42.667 42.667v40.011c51.424-25.568 109.344-40.011 170.667-40.011s119.253 14.443 170.667 40.011v-40.011zM512 149.333c-164.949 0-298.667 133.717-298.667 298.667s133.717 298.667 298.667 298.667 298.667-133.717 298.667-298.667-133.717-298.667-298.667-298.667zM597.333 320c-10.912 0-21.835 4.171-30.165 12.501l-85.333 85.333c-8 8-12.501 18.848-12.501 30.165v170.667c0 23.563 19.104 42.667 42.667 42.667s42.667-19.104 42.667-42.667v-152.992l72.832-72.843c16.661-16.661 16.661-43.68 0-60.331-8.331-8.331-19.253-12.501-30.165-12.501z" />
<glyph unicode="&#xe93d;" glyph-name="minus" d="M896 490.667h-768c-23.563 0-42.667-19.104-42.667-42.667s19.104-42.667 42.667-42.667h768c23.563 0 42.667 19.104 42.667 42.667s-19.104 42.667-42.667 42.667z" />
<glyph unicode="&#xe93e;" glyph-name="menu" d="M128 661.333h768c23.563 0 42.667 19.104 42.667 42.667s-19.104 42.667-42.667 42.667h-768c-23.563 0-42.667-19.104-42.667-42.667s19.104-42.667 42.667-42.667zM896 490.667h-768c-23.563 0-42.667-19.104-42.667-42.667s19.104-42.667 42.667-42.667h768c23.563 0 42.667 19.104 42.667 42.667s-19.104 42.667-42.667 42.667zM896 234.667h-768c-23.563 0-42.667-19.104-42.667-42.667s19.104-42.667 42.667-42.667h768c23.563 0 42.667 19.104 42.667 42.667s-19.104 42.667-42.667 42.667z" />
<glyph unicode="&#xe93f;" glyph-name="file" d="M938.667 661.333v-597.333c0-70.688-57.312-128-128-128h-597.333c-70.688 0-128 57.312-128 128v768c0 70.688 57.312 128 128 128h426.667l298.667-298.667zM640 661.333h177.995l-177.995 177.995v-177.995zM853.333 64v512h-298.667v298.667h-341.333c-15.371 0-25.504-7.829-30.176-12.491-4.661-4.672-12.491-14.805-12.491-30.176v-768c0-15.371 7.829-25.504 12.491-30.165 4.672-4.672 14.805-12.501 30.176-12.501h597.333c15.371 0 25.504 7.829 30.165 12.501s12.501 14.795 12.501 30.165z" />
<glyph unicode="&#xe940;" glyph-name="file-add" d="M682.667 320c0-23.563-19.104-42.667-42.667-42.667h-85.333v-85.333c0-23.563-19.104-42.667-42.667-42.667s-42.667 19.104-42.667 42.667v85.333h-85.333c-23.563 0-42.667 19.104-42.667 42.667s19.104 42.667 42.667 42.667h85.333v85.333c0 23.563 19.104 42.667 42.667 42.667s42.667-19.104 42.667-42.667v-85.333h85.333c23.563 0 42.667-19.104 42.667-42.667zM938.667 661.333v-597.333c0-70.699-57.301-128-128-128h-597.333c-70.699 0-128 57.301-128 128v768c0 70.699 57.301 128 128 128h426.667l298.667-298.667zM640 661.333h177.995l-177.995 177.995v-177.995zM853.333 64v512h-298.667v298.667h-341.333c-15.371 0-25.504-7.829-30.165-12.501s-12.501-14.795-12.501-30.165v-768c0-15.371 7.829-25.504 12.501-30.165s14.795-12.501 30.165-12.501h597.333c15.371 0 25.504 7.829 30.165 12.501s12.501 14.795 12.501 30.165z" />
<glyph unicode="&#xe941;" glyph-name="file-subtract" d="M682.667 320c0-23.563-19.104-42.667-42.667-42.667h-256c-23.563 0-42.667 19.104-42.667 42.667s19.104 42.667 42.667 42.667h256c23.563 0 42.667-19.104 42.667-42.667zM938.667 661.333v-597.333c0-70.699-57.301-128-128-128h-597.333c-70.699 0-128 57.301-128 128v768c0 70.699 57.301 128 128 128h426.667l298.667-298.667zM640 661.333h177.995l-177.995 177.995v-177.995zM853.333 64v512h-298.667v298.667h-341.333c-15.371 0-25.504-7.829-30.165-12.501s-12.501-14.795-12.501-30.165v-768c0-15.371 7.829-25.504 12.501-30.165s14.795-12.501 30.165-12.501h597.333c15.371 0 25.504 7.829 30.165 12.501s12.501 14.795 12.501 30.165z" />
<glyph unicode="&#xe942;" glyph-name="paper" d="M810.667 960h-597.333c-70.72 0-128-57.28-128-128v-768c0-70.72 57.28-128 128-128h597.333c70.72 0 128 57.28 128 128v768c0 70.72-57.28 128-128 128zM853.333 64c0-23.573-19.093-42.667-42.667-42.667h-597.333c-23.573 0-42.667 19.093-42.667 42.667v768c0 23.573 19.093 42.667 42.667 42.667h597.333c23.573 0 42.667-19.093 42.667-42.667v-768zM682.667 234.667h-341.333c-23.563 0-42.667-19.104-42.667-42.667s19.104-42.667 42.667-42.667h341.333c23.563 0 42.667 19.104 42.667 42.667s-19.104 42.667-42.667 42.667zM682.667 405.333h-341.333c-23.563 0-42.667-19.104-42.667-42.667s19.104-42.667 42.667-42.667h341.333c23.563 0 42.667 19.104 42.667 42.667s-19.104 42.667-42.667 42.667zM682.667 576h-341.333c-23.563 0-42.667-19.104-42.667-42.667s19.104-42.667 42.667-42.667h341.333c23.563 0 42.667 19.104 42.667 42.667s-19.104 42.667-42.667 42.667zM341.333 661.333h170.667c23.563 0 42.667 19.104 42.667 42.667s-19.104 42.667-42.667 42.667h-170.667c-23.563 0-42.667-19.104-42.667-42.667s19.104-42.667 42.667-42.667z" />
<glyph unicode="&#xe943;" glyph-name="stack-2" d="M170.667 149.333v547.317c-49.707-17.504-85.333-64.864-85.333-120.651v-426.667c0-70.72 57.28-128 128-128h426.667c55.787 0 103.147 35.627 120.651 85.333h-547.317c-23.573 0-42.667 19.093-42.667 42.667zM810.667 874.667h-426.667c-70.72 0-128-57.28-128-128v-426.667c0-70.72 57.28-128 128-128h426.667c70.72 0 128 57.28 128 128v426.667c0 70.72-57.28 128-128 128zM853.333 320c0-23.573-19.093-42.667-42.667-42.667h-426.667c-23.573 0-42.667 19.093-42.667 42.667v426.667c0 23.573 19.093 42.667 42.667 42.667h426.667c23.573 0 42.667-19.093 42.667-42.667v-426.667z" />
<glyph unicode="&#xe944;" glyph-name="stack" d="M853.333 917.333h-384c-70.72 0-128-57.28-128-128v-170.667h-170.667c-70.72 0-128-57.28-128-128v-384c0-70.72 57.28-128 128-128h384c70.72 0 128 57.28 128 128v170.667h170.667c70.72 0 128 57.28 128 128v384c0 70.72-57.28 128-128 128zM597.333 106.667c0-23.573-19.093-42.667-42.667-42.667h-384c-23.573 0-42.667 19.093-42.667 42.667v384c0 23.573 19.093 42.667 42.667 42.667h170.667v-128c0-70.72 57.28-128 128-128h128v-170.667zM896 405.333c0-23.573-19.093-42.667-42.667-42.667h-384c-23.573 0-42.667 19.093-42.667 42.667v384c0 23.573 19.093 42.667 42.667 42.667h384c23.573 0 42.667-19.093 42.667-42.667v-384z" />
<glyph unicode="&#xe945;" glyph-name="columns" d="M896 832h-768c-70.72 0-128-57.28-128-128v-512c0-70.72 57.28-128 128-128h768c70.72 0 128 57.28 128 128v512c0 70.72-57.28 128-128 128zM640 746.667v-597.333h-256v597.333h256zM85.333 192v512c0 23.573 19.093 42.667 42.667 42.667h170.667v-597.333h-170.667c-23.573 0-42.667 19.093-42.667 42.667zM938.667 192c0-23.573-19.093-42.667-42.667-42.667h-170.667v597.333h170.667c23.573 0 42.667-19.093 42.667-42.667v-512z" />
<glyph unicode="&#xe946;" glyph-name="grid-2" d="M853.333 917.333h-682.667c-70.72 0-128-57.28-128-128v-682.667c0-70.72 57.28-128 128-128h682.667c70.72 0 128 57.28 128 128v682.667c0 70.72-57.28 128-128 128zM896 789.333v-298.667h-341.333v341.333h298.667c23.573 0 42.667-19.093 42.667-42.667zM170.667 832h298.667v-341.333h-341.333v298.667c0 23.573 19.093 42.667 42.667 42.667zM128 106.667v298.667h341.333v-341.333h-298.667c-23.573 0-42.667 19.093-42.667 42.667zM853.333 64h-298.667v341.333h341.333v-298.667c0-23.573-19.093-42.667-42.667-42.667z" />
<glyph unicode="&#xe947;" glyph-name="layout" d="M853.333 917.333h-682.667c-70.699 0-128-57.312-128-128v-682.667c0-70.688 57.301-128 128-128h682.667c70.699 0 128 57.312 128 128v682.667c0 70.688-57.301 128-128 128zM170.667 832h682.667c23.563 0 42.667-19.104 42.667-42.667v-128h-768v128c0 23.563 19.104 42.667 42.667 42.667zM128 106.667v469.333h213.333v-512h-170.667c-23.563 0-42.667 19.104-42.667 42.667zM853.333 64h-426.667v512h469.333v-469.333c0-23.563-19.104-42.667-42.667-42.667z" />
<glyph unicode="&#xe948;" glyph-name="grid" d="M341.333 917.333h-170.667c-70.72 0-128-57.28-128-128v-170.667c0-70.72 57.28-128 128-128h170.667c70.72 0 128 57.28 128 128v170.667c0 70.72-57.28 128-128 128zM384 618.667c0-23.573-19.093-42.667-42.667-42.667h-170.667c-23.573 0-42.667 19.093-42.667 42.667v170.667c0 23.573 19.093 42.667 42.667 42.667h170.667c23.573 0 42.667-19.093 42.667-42.667v-170.667zM853.333 917.333h-170.667c-70.72 0-128-57.28-128-128v-170.667c0-70.72 57.28-128 128-128h170.667c70.72 0 128 57.28 128 128v170.667c0 70.72-57.28 128-128 128zM896 618.667c0-23.573-19.093-42.667-42.667-42.667h-170.667c-23.573 0-42.667 19.093-42.667 42.667v170.667c0 23.573 19.093 42.667 42.667 42.667h170.667c23.573 0 42.667-19.093 42.667-42.667v-170.667zM853.333 405.333h-170.667c-70.72 0-128-57.28-128-128v-170.667c0-70.72 57.28-128 128-128h170.667c70.72 0 128 57.28 128 128v170.667c0 70.72-57.28 128-128 128zM896 106.667c0-23.573-19.093-42.667-42.667-42.667h-170.667c-23.573 0-42.667 19.093-42.667 42.667v170.667c0 23.573 19.093 42.667 42.667 42.667h170.667c23.573 0 42.667-19.093 42.667-42.667v-170.667zM341.333 405.333h-170.667c-70.72 0-128-57.28-128-128v-170.667c0-70.72 57.28-128 128-128h170.667c70.72 0 128 57.28 128 128v170.667c0 70.72-57.28 128-128 128zM384 106.667c0-23.573-19.093-42.667-42.667-42.667h-170.667c-23.573 0-42.667 19.093-42.667 42.667v170.667c0 23.573 19.093 42.667 42.667 42.667h170.667c23.573 0 42.667-19.093 42.667-42.667v-170.667z" />
<glyph unicode="&#xe949;" glyph-name="stop" d="M768 832h-512c-70.72 0-128-57.28-128-128v-512c0-70.72 57.28-128 128-128h512c70.72 0 128 57.28 128 128v512c0 70.72-57.28 128-128 128zM810.667 192c0-23.573-19.093-42.667-42.667-42.667h-512c-23.573 0-42.667 19.093-42.667 42.667v512c0 23.573 19.093 42.667 42.667 42.667h512c23.573 0 42.667-19.093 42.667-42.667v-512z" />
<glyph unicode="&#xe94a;" glyph-name="content-right" d="M341.333 917.333h-170.667c-70.72 0-128-57.28-128-128v-170.667c0-70.72 57.28-128 128-128h170.667c70.72 0 128 57.28 128 128v170.667c0 70.72-57.28 128-128 128zM384 618.667c0-23.573-19.093-42.667-42.667-42.667h-170.667c-23.573 0-42.667 19.093-42.667 42.667v170.667c0 23.573 19.093 42.667 42.667 42.667h170.667c23.573 0 42.667-19.093 42.667-42.667v-170.667zM853.333 917.333h-170.667c-70.72 0-128-57.28-128-128v-682.667c0-70.72 57.28-128 128-128h170.667c70.72 0 128 57.28 128 128v682.667c0 70.72-57.28 128-128 128zM896 106.667c0-23.573-19.093-42.667-42.667-42.667h-170.667c-23.573 0-42.667 19.093-42.667 42.667v682.667c0 23.573 19.093 42.667 42.667 42.667h170.667c23.573 0 42.667-19.093 42.667-42.667v-682.667zM341.333 405.333h-170.667c-70.72 0-128-57.28-128-128v-170.667c0-70.72 57.28-128 128-128h170.667c70.72 0 128 57.28 128 128v170.667c0 70.72-57.28 128-128 128zM384 106.667c0-23.573-19.093-42.667-42.667-42.667h-170.667c-23.573 0-42.667 19.093-42.667 42.667v170.667c0 23.573 19.093 42.667 42.667 42.667h170.667c23.573 0 42.667-19.093 42.667-42.667v-170.667z" />
<glyph unicode="&#xe94b;" glyph-name="content-left" d="M554.667 789.333v-170.667c0-70.72 57.28-128 128-128h170.667c70.72 0 128 57.28 128 128v170.667c0 70.72-57.28 128-128 128h-170.667c-70.72 0-128-57.28-128-128zM640 789.333c0 23.573 19.093 42.667 42.667 42.667h170.667c23.573 0 42.667-19.093 42.667-42.667v-170.667c0-23.573-19.093-42.667-42.667-42.667h-170.667c-23.573 0-42.667 19.093-42.667 42.667v170.667zM42.667 789.333v-682.667c0-70.72 57.28-128 128-128h170.667c70.72 0 128 57.28 128 128v682.667c0 70.72-57.28 128-128 128h-170.667c-70.72 0-128-57.28-128-128zM128 789.333c0 23.573 19.093 42.667 42.667 42.667h170.667c23.573 0 42.667-19.093 42.667-42.667v-682.667c0-23.573-19.093-42.667-42.667-42.667h-170.667c-23.573 0-42.667 19.093-42.667 42.667v682.667zM554.667 277.333v-170.667c0-70.72 57.28-128 128-128h170.667c70.72 0 128 57.28 128 128v170.667c0 70.72-57.28 128-128 128h-170.667c-70.72 0-128-57.28-128-128zM640 277.333c0 23.573 19.093 42.667 42.667 42.667h170.667c23.573 0 42.667-19.093 42.667-42.667v-170.667c0-23.573-19.093-42.667-42.667-42.667h-170.667c-23.573 0-42.667 19.093-42.667 42.667v170.667z" />
<glyph unicode="&#xe94c;" glyph-name="paper-stack" d="M597.333 21.333h-384c-23.573 0-42.667 19.093-42.667 42.667v717.888c-49.685-17.6-85.333-64.853-85.333-120.565v-597.333c0-70.688 57.312-128 128-128h426.667c55.712 0 102.955 35.659 120.565 85.333h-163.232zM810.667 960h-426.667c-70.688 0-128-57.323-128-128v-597.333c0-70.699 57.312-128.011 128-128.011h426.667c70.688 0 128 57.312 128 128.011v597.333c0 70.677-57.312 128-128 128zM853.333 234.667c0-23.584-19.093-42.677-42.667-42.677h-426.667c-23.563 0-42.667 19.093-42.667 42.677v597.333c0 23.573 19.104 42.667 42.667 42.667h426.667c23.573 0 42.667-19.093 42.667-42.667v-597.333z" />
<glyph unicode="&#xe94d;" glyph-name="clipboard" d="M768 832h-50.101c-17.611 49.685-64.853 85.333-120.565 85.333h-170.667c-55.712 0-102.955-35.648-120.565-85.333h-50.101c-70.72 0-128-57.28-128-128v-597.333c0-70.72 57.28-128 128-128h512c70.72 0 128 57.28 128 128v597.333c0 70.72-57.28 128-128 128zM426.667 832h170.667c23.563 0 42.667-19.104 42.667-42.667s-19.104-42.667-42.667-42.667h-170.667c-23.563 0-42.667 19.104-42.667 42.667s19.104 42.667 42.667 42.667zM810.667 106.667c0-23.573-19.093-42.667-42.667-42.667h-512c-23.573 0-42.667 19.093-42.667 42.667v597.333c0 23.573 19.093 42.667 42.667 42.667h50.101c17.579-49.685 64.853-85.333 120.565-85.333h170.667c55.712 0 102.955 35.648 120.565 85.333h50.101c23.573 0 42.667-19.093 42.667-42.667v-597.333z" />
<glyph unicode="&#xe94e;" glyph-name="book" d="M213.333 917.333c-70.72 0-128-57.28-128-128v-682.667c0-70.72 57.28-128 128-128h682.667v938.667h-682.667zM810.667 64h-597.333c-23.563 0-42.667 19.104-42.667 42.667s19.104 42.667 42.667 42.667h597.333v-85.333zM810.667 234.667h-597.333c-14.987 0-29.301-2.709-42.667-7.435v562.101c0 23.573 19.093 42.667 42.667 42.667h597.333v-597.333z" />
<glyph unicode="&#xe94f;" glyph-name="folder" d="M399.083 699.328l24.576-37.995h429.675c23.531 0 42.667-19.136 42.667-42.667v-469.333c0-23.531-19.136-42.667-42.667-42.667h-682.667c-23.531 0-42.667 19.136-42.667 42.667v597.333c0 23.531 19.136 42.667 42.667 42.667h170.667l57.749-90.005zM384 874.667h-213.333c-70.72 0-128-57.28-128-128v-597.333c0-70.72 57.28-128 128-128h682.667c70.72 0 128 57.28 128 128v469.333c0 70.72-57.28 128-128 128h-384l-85.333 128z" />
<glyph unicode="&#xe950;" glyph-name="box" d="M512 960l-469.333-213.333v-597.333l469.333-213.333 469.333 213.333v597.333l-469.333 213.333zM512 866.24l314.667-143.040-314.667-143.029-314.773 143.029 314.773 143.040zM128 204.267v456.747l341.333-155.093v-456.747l-341.333 155.093zM896 204.267l-341.333-155.104v456.757l341.333 155.104v-456.757z" />
<glyph unicode="&#xe951;" glyph-name="moon" d="M427.989 778.88c-0.875-10.656-1.323-21.397-1.323-32.213 0-211.755 172.245-384 384-384 10.816 0 21.557 0.437 32.213 1.323-37.536-147.723-171.648-257.323-330.88-257.323-188.213 0-341.333 153.12-341.333 341.333 0 159.232 109.6 293.344 257.323 330.88zM512 874.667c-235.637 0-426.667-191.029-426.667-426.667 0-235.648 191.029-426.667 426.667-426.667 235.648 0 426.667 191.019 426.667 426.667 0 9.525-0.427 18.933-1.045 28.309-38.528-18.123-81.547-28.309-126.955-28.309-164.949 0-298.667 133.717-298.667 298.667 0 45.408 10.187 88.427 28.309 126.955-9.376 0.619-18.784 1.045-28.309 1.045v0z" />
<glyph unicode="&#xe952;" glyph-name="sun" d="M554.667 917.333v-85.333c0-23.563-19.104-42.667-42.667-42.667s-42.667 19.104-42.667 42.667v85.333c0 23.563 19.104 42.667 42.667 42.667s42.667-19.104 42.667-42.667zM512 106.667c-23.563 0-42.667-19.104-42.667-42.667v-85.333c0-23.563 19.104-42.667 42.667-42.667s42.667 19.104 42.667 42.667v85.333c0 23.563-19.104 42.667-42.667 42.667zM149.963 810.037c-16.661-16.661-16.661-43.68 0-60.341l60.341-60.341c16.661-16.661 43.68-16.661 60.341 0s16.661 43.691 0 60.341l-60.341 60.341c-16.672 16.661-43.68 16.661-60.341 0zM753.355 206.645c-16.661-16.661-16.661-43.691 0-60.341l60.341-60.341c16.661-16.661 43.68-16.661 60.341 0s16.661 43.68 0 60.341l-60.341 60.341c-16.661 16.661-43.68 16.661-60.341 0zM0 448c0-23.563 19.104-42.667 42.667-42.667h85.333c23.563 0 42.667 19.104 42.667 42.667s-19.104 42.667-42.667 42.667h-85.333c-23.563 0-42.667-19.104-42.667-42.667zM853.333 448c0-23.563 19.104-42.667 42.667-42.667h85.333c23.563 0 42.667 19.104 42.667 42.667s-19.104 42.667-42.667 42.667h-85.333c-23.563 0-42.667-19.104-42.667-42.667zM149.963 85.963c16.661-16.661 43.68-16.661 60.341 0l60.331 60.341c16.661 16.661 16.661 43.68 0 60.341s-43.669 16.661-60.331 0l-60.341-60.341c-16.661-16.672-16.661-43.68 0-60.341zM753.355 689.355c16.661-16.661 43.68-16.661 60.341 0l60.341 60.341c16.661 16.661 16.661 43.68 0 60.341s-43.68 16.661-60.341 0l-60.341-60.341c-16.661-16.651-16.661-43.68 0-60.341zM768 448c0-141.387-114.613-256-256-256s-256 114.613-256 256 114.613 256 256 256 256-114.613 256-256zM682.667 448c0 94.261-76.405 170.667-170.667 170.667s-170.667-76.405-170.667-170.667 76.405-170.667 170.667-170.667 170.667 76.405 170.667 170.667z" />
<glyph unicode="&#xe953;" glyph-name="loader" d="M298.667 448c0 23.552-19.104 42.667-42.667 42.667h-170.667c-23.573 0-42.667-19.115-42.667-42.667 0-23.563 19.104-42.667 42.667-42.667h170.667c23.563 0 42.667 19.104 42.667 42.667zM938.667 490.667h-170.667c-23.563 0-42.667-19.115-42.667-42.667 0-23.563 19.104-42.667 42.667-42.667h170.667c23.563 0 42.667 19.104 42.667 42.667 0 23.552-19.104 42.667-42.667 42.667zM512 917.333c-23.552 0-42.667-19.104-42.667-42.667v-170.667c0-23.552 19.115-42.667 42.667-42.667 23.563 0 42.667 19.115 42.667 42.667v170.667c0 23.563-19.104 42.667-42.667 42.667zM512 234.667c-23.552 0-42.667-19.104-42.667-42.667v-170.667c0-23.563 19.115-42.667 42.667-42.667 23.563 0 42.667 19.104 42.667 42.667v170.667c0 23.563-19.104 42.667-42.667 42.667zM300.8 297.141l-120.651-120.661c-16.661-16.661-16.661-43.691 0-60.352 16.651-16.661 43.669-16.661 60.331 0l120.672 120.683c16.661 16.651 16.661 43.669 0 60.331s-43.68 16.672-60.352 0zM723.2 598.848l120.661 120.661c16.661 16.661 16.661 43.68 0 60.341-16.651 16.661-43.669 16.661-60.309 0l-120.693-120.661c-16.661-16.661-16.661-43.68 0-60.341s43.659-16.661 60.341 0zM240.469 779.872c-16.651 16.661-43.669 16.661-60.331 0s-16.661-43.68 0-60.341l120.661-120.683c16.661-16.661 43.691-16.661 60.352 0s16.661 43.68 0 60.341l-120.683 120.683zM723.2 297.141c-16.661 16.661-43.691 16.661-60.341 0-16.661-16.661-16.661-43.669 0-60.331l120.672-120.683c16.661-16.661 43.669-16.661 60.32 0s16.651 43.691 0 60.352l-120.651 120.661z" />
<glyph unicode="&#xe954;" glyph-name="ellipsis" d="M170.667 576c-70.688 0-128-57.312-128-128s57.312-128 128-128 128 57.312 128 128-57.312 128-128 128zM170.667 405.333c-23.563 0-42.667 19.104-42.667 42.667s19.104 42.667 42.667 42.667 42.667-19.104 42.667-42.667-19.104-42.667-42.667-42.667zM512 576c-70.688 0-128-57.312-128-128s57.312-128 128-128 128 57.312 128 128-57.312 128-128 128zM512 405.333c-23.563 0-42.667 19.104-42.667 42.667s19.104 42.667 42.667 42.667 42.667-19.104 42.667-42.667-19.104-42.667-42.667-42.667zM853.333 576c-70.688 0-128-57.312-128-128s57.312-128 128-128 128 57.312 128 128-57.312 128-128 128zM853.333 405.333c-23.563 0-42.667 19.104-42.667 42.667s19.104 42.667 42.667 42.667 42.667-19.104 42.667-42.667-19.104-42.667-42.667-42.667z" />
<glyph unicode="&#xe955;" glyph-name="briefcase2" d="M853.333 746.667h-128v42.667c0 70.72-57.28 128-128 128h-170.667c-70.72 0-128-57.28-128-128v-42.667h-128c-70.688 0-128-57.312-128-128v-426.667c0-70.688 57.312-128 128-128h682.667c70.688 0 128 57.312 128 128v426.667c0 70.688-57.312 128-128 128zM725.333 661.333v-512h-426.667v512h426.667zM384 789.333c0 23.573 19.093 42.667 42.667 42.667h170.667c23.573 0 42.667-19.093 42.667-42.667v-42.667h-256v42.667zM128 192v426.667c0 23.573 19.093 42.667 42.667 42.667h42.667v-512h-42.667c-23.573 0-42.667 19.093-42.667 42.667zM896 192c0-23.573-19.093-42.667-42.667-42.667h-42.667v512h42.667c23.573 0 42.667-19.093 42.667-42.667v-426.667z" />
<glyph unicode="&#xe956;" glyph-name="bag" d="M725.333 704v42.667c0 117.824-95.509 213.333-213.333 213.333s-213.333-95.509-213.333-213.333v-42.667h-170.667v-640c0-70.72 57.28-128 128-128h512c70.72 0 128 57.28 128 128v640h-170.667zM384 746.667c0 70.688 57.312 128 128 128s128-57.312 128-128v-42.667h-256v42.667zM810.667 64c0-23.573-19.093-42.667-42.667-42.667h-512c-23.573 0-42.667 19.093-42.667 42.667v554.667h597.333v-554.667z" />
<glyph unicode="&#xe957;" glyph-name="eye" d="M512 832c-341.333 0-512-385.771-512-385.771s170.667-382.229 512-382.229 512 384 512 384-170.667 384-512 384zM512 149.333c-225.557 0-367.968 212.075-415.968 297.088 47.968 85.824 190.411 300.245 415.968 300.245 225.6 0 368.021-213.312 415.979-298.667-48.043-85.504-190.432-298.667-415.979-298.667zM512 618.667c-94.251 0-170.667-76.416-170.667-170.667 0-94.261 76.416-170.667 170.667-170.667 94.261 0 170.667 76.405 170.667 170.667 0 94.251-76.405 170.667-170.667 170.667zM512 362.667c-47.051 0-85.333 38.283-85.333 85.333s38.283 85.333 85.333 85.333 85.333-38.283 85.333-85.333-38.283-85.333-85.333-85.333z" />
<glyph unicode="&#xe958;" glyph-name="head" d="M689.824 391.936c48.181 46.539 78.176 111.797 78.176 184.064v128c0 141.387-114.613 256-256 256s-256-114.613-256-256v-128c0-72.245 29.995-137.483 78.144-184.032-195.083-30.389-334.144-109.173-334.144-200.971v-84.331c0-70.72 57.28-128 128-128h768c70.72 0 128 57.28 128 128v84c0 91.787-139.072 170.816-334.176 201.269zM341.333 576v128c0 94.251 76.416 170.667 170.667 170.667 94.261 0 170.667-76.416 170.667-170.667v-128c0-94.251-76.405-170.667-170.667-170.667-94.251 0-170.667 76.416-170.667 170.667zM938.667 106.667c0-23.531-19.136-42.667-42.667-42.667h-768c-23.531 0-42.667 19.136-42.667 42.667v84.331c0 9.941 24.587 42.037 97.621 72.661 85.376 35.808 205.312 56.341 329.045 56.341 123.669 0 243.573-20.587 328.981-56.469 73.077-30.72 97.685-62.88 97.685-72.864v-84z" />
<glyph unicode="&#xe959;" glyph-name="icon-ios7-cart" d="M882 128c0-27.6-22.4-50-50-50s-50 22.4-50 50 22.4 50 50 50 50-22.4 50-50zM306 128c0-27.6-22.4-50-50-50s-50 22.4-50 50 22.4 50 50 50 50-22.4 50-50zM255.8 768l-22.2 64h-105.6v-34h83.4l115-426.6c-64.8-22.6-119.8-75.8-130.6-146.2-3.8-23.4-3.8-33.2-3.8-33.2h704v33.4h-665.4c9.4 63.2 77.6 116.2 148.2 125s486.6 68.4 486.6 68.4l30.6 349.2h-640.2z" />
<glyph unicode="&#xe95a;" glyph-name="bag-new" d="M481.28 958.697c-13.964-1.303-47.849-8.192-63.116-12.847-21.597-6.889-57.158-24.576-75.962-37.981-31.279-22.342-58.461-54.924-71.308-85.457-13.033-31.092-12.847-27.741-13.591-139.636l-0.559-101.469-5.399-6.144c-10.985-12.474-15.267-24.576-15.081-42.636 0.186-23.459 14.15-45.801 35.188-56.041 9.309-4.655 12.66-5.213 28.3-5.213s18.804 0.559 27.369 5.213c14.15 7.261 21.411 14.522 28.486 27.741 11.729 21.969 9.495 48.035-5.772 68.329l-7.447 9.681 1.117 194.746 8.006 16.012c17.873 36.119 58.647 64.233 110.033 75.962 20.666 4.841 59.578 6.516 80.803 3.724 71.866-9.681 129.583-52.131 139.078-102.4 1.117-5.958 1.862-46.918 1.862-99.607v-89.74l-5.399-5.213c-15.825-15.267-20.666-45.615-10.612-67.584 6.144-13.591 19.177-26.81 32.396-32.768 13.405-6.144 38.54-5.772 52.689 0.745 13.405 6.33 24.948 17.873 31.279 31.279 4.096 8.751 4.841 13.033 4.841 26.252 0 17.501-3.537 27.741-13.777 40.774l-5.399 6.889-0.931 98.49c-0.559 80.803-1.303 100.911-3.537 110.778-20.852 86.947-103.889 152.297-211.689 166.819-18.060 2.234-53.062 2.979-71.866 1.303zM103.145 741.423c-9.681-4.468-17.501-12.66-21.039-22.156-3.165-8.378-80.617-728.343-79.872-742.679 0.745-15.825 7.447-26.065 21.969-33.513l9.681-5.213h478.86c460.986 0 478.86 0.186 486.307 3.537 15.267 6.889 26.624 26.624 24.39 42.449-0.559 3.91-18.618 169.612-40.215 368.454s-40.029 363.799-41.146 366.778c-3.724 9.681-11.543 17.873-21.225 22.342-9.309 4.282-10.612 4.468-60.137 4.468h-50.828v-85.644h53.62l1.117-6.889c0.559-3.91 15.825-143.174 33.699-309.62s32.954-306.455 33.699-311.296l1.117-8.937h-842.1l1.117 8.006c0.559 4.282 15.639 143.919 33.513 310.365s32.954 306.083 33.513 310.551l1.117 7.82h53.807v85.644h-50.641c-49.711 0-51.014-0.186-60.323-4.468zM383.907 703.628l0.559-42.449h255.069l0.559 42.449 0.372 42.263h-256.931l0.372-42.263z" />
<glyph unicode="&#xe95b;" glyph-name="trash2" d="M896 725.333h-170.667v42.667c0 70.72-57.28 128-128 128h-170.667c-70.72 0-128-57.28-128-128v-42.667h-170.667c-23.563 0-42.667-19.104-42.667-42.667s19.104-42.667 42.667-42.667h42.667v-512c0-70.72 57.28-128 128-128h426.667c70.72 0 128 57.28 128 128v512h42.667c23.563 0 42.667 19.104 42.667 42.667s-19.104 42.667-42.667 42.667zM384 768c0 23.573 19.093 42.667 42.667 42.667h170.667c23.573 0 42.667-19.093 42.667-42.667v-42.667h-256v42.667zM768 128c0-23.573-19.093-42.667-42.667-42.667h-426.667c-23.573 0-42.667 19.093-42.667 42.667v512h512v-512z" />
<glyph unicode="&#xe95c;" glyph-name="umbrella" d="M768 192c-23.563 0-42.667-19.104-42.667-42.667 0-47.125-38.208-85.333-85.333-85.333s-85.333 38.208-85.333 85.333v256h469.333c0 29.077-2.432 57.579-7.083 85.333-40.629 242.155-251.221 426.667-504.917 426.667s-464.299-184.512-504.917-426.667c-4.661-27.755-7.083-56.256-7.083-85.333h469.333v-256c0-94.261 76.405-170.667 170.667-170.667s170.667 76.405 170.667 170.667c0 23.563-19.104 42.667-42.667 42.667zM512 832c206.421 0 378.603-146.581 418.123-341.333h-836.256c39.531 194.752 211.712 341.333 418.133 341.333z" />
<glyph unicode="&#xe95d;" glyph-name="anchor" d="M938.667 490.667c-23.563 0-42.667-19.104-42.667-42.667 0-197.643-149.355-360.352-341.333-381.579v515.157c73.557 18.987 128 85.589 128 165.088 0 94.251-76.416 170.667-170.667 170.667s-170.667-76.416-170.667-170.667c0-79.499 54.443-146.101 128-165.088v-515.168c-191.989 21.237-341.333 183.947-341.333 381.589 0 23.563-19.104 42.667-42.667 42.667s-42.667-19.104-42.667-42.667c0-259.211 210.133-469.333 469.333-469.333 259.211 0 469.333 210.123 469.333 469.333 0 23.563-19.104 42.667-42.667 42.667zM426.667 746.667c0 47.125 38.208 85.333 85.333 85.333s85.333-38.208 85.333-85.333-38.208-85.333-85.333-85.333-85.333 38.208-85.333 85.333z" />
<glyph unicode="&#xe95e;" glyph-name="drop" d="M783.531 634.208l-271.531 271.531-271.531-271.531c-149.973-149.984-149.973-393.099 0-543.061s393.109-149.973 543.061 0c149.973 149.963 149.973 393.077 0 543.061zM300.811 151.488c-116.651 116.64-116.651 305.728 0 422.379l211.189 211.189 211.189-211.189c116.651-116.651 116.651-305.739 0-422.379-116.64-116.64-305.739-116.619-422.379 0z" />
<glyph unicode="&#xe95f;" glyph-name="printer" d="M853.333 533.333h-85.333v213.333c0 70.72-57.28 128-128 128h-256c-70.72 0-128-57.28-128-128v-213.333h-85.333c-70.72 0-128-57.28-128-128v-170.667c0-70.72 57.28-128 128-128h92.768c17.579-49.675 64.853-85.333 120.565-85.333h256c55.712 0 102.955 35.659 120.565 85.333h92.768c70.72 0 128 57.28 128 128v170.667c0 70.72-57.28 128-128 128zM341.333 746.667c0 23.573 19.093 42.667 42.667 42.667h256c23.573 0 42.667-19.093 42.667-42.667v-213.333h-341.333v213.333zM640 106.667h-256c-23.563 0-42.667 19.104-42.667 42.667s19.104 42.667 42.667 42.667h256c23.563 0 42.667-19.104 42.667-42.667s-19.104-42.667-42.667-42.667zM896 234.667c0-23.573-19.093-42.667-42.667-42.667h-92.768c-17.568 49.675-64.853 85.333-120.565 85.333h-256c-55.712 0-102.955-35.659-120.565-85.333h-92.768c-23.573 0-42.667 19.093-42.667 42.667v170.667c0 23.573 19.093 42.667 42.667 42.667h682.667c23.573 0 42.667-19.093 42.667-42.667v-170.667z" />
<glyph unicode="&#xe960;" glyph-name="help" d="M843.872 779.861c-183.296 183.285-480.459 183.285-663.744 0s-183.285-480.459 0-663.744 480.448-183.285 663.744 0c183.285 183.285 183.285 480.459 0 663.744zM751.701 748.032l-122.027-122.037c-71.104 47.115-164.224 47.115-235.328 0l-122.048 122.037c139.765 111.947 339.637 111.947 479.403 0zM640 447.989c0-70.688-57.312-128-128-128s-128 57.312-128 128c0 70.699 57.312 128 128 128s128-57.301 128-128zM211.957 687.691l122.037-122.037c-47.115-71.104-47.115-164.224 0-235.328l-122.037-122.027c-111.947 139.765-111.947 339.627 0 479.392zM272.299 147.947l122.037 122.037c71.104-47.104 164.224-47.104 235.328 0l122.027-122.037c-139.755-111.936-339.627-111.936-479.392 0zM812.043 208.299l-122.037 122.027c47.104 71.104 47.104 164.224 0 235.328l122.037 122.037c111.936-139.765 111.936-339.627 0-479.392z" />
<glyph unicode="&#xe961;" glyph-name="bar-graph" d="M853.333 917.333c-70.699 0-128-57.301-128-128v-682.667c0-70.699 57.301-128 128-128s128 57.301 128 128v682.667c0 70.699-57.301 128-128 128zM896 106.667c0-23.563-19.104-42.667-42.667-42.667s-42.667 19.104-42.667 42.667v682.667c0 23.563 19.104 42.667 42.667 42.667s42.667-19.104 42.667-42.667v-682.667zM512 661.333c-70.699 0-128-57.301-128-128v-426.667c0-70.699 57.301-128 128-128s128 57.301 128 128v426.667c0 70.699-57.301 128-128 128zM554.667 106.667c0-23.563-19.104-42.667-42.667-42.667s-42.667 19.104-42.667 42.667v426.667c0 23.563 19.104 42.667 42.667 42.667s42.667-19.104 42.667-42.667v-426.667zM170.667 405.333c-70.699 0-128-57.301-128-128v-170.667c0-70.699 57.301-128 128-128s128 57.301 128 128v170.667c0 70.699-57.301 128-128 128zM213.333 106.667c0-23.563-19.104-42.667-42.667-42.667s-42.667 19.104-42.667 42.667v170.667c0 23.563 19.104 42.667 42.667 42.667s42.667-19.104 42.667-42.667v-170.667z" />
<glyph unicode="&#xe962;" glyph-name="forrst" d="M905.422 5.377l-373.779 860.953c-3.287 7.568-10.765 12.427-19.001 12.427v0c-8.236 0-15.714-4.877-18.965-12.409l-375.080-860.935c-2.8-6.448-2.167-13.836 1.662-19.688 3.829-5.816 10.332-9.356 17.304-9.356h332.706v182.898l-89.155 61.827 14.739 21.205 74.398-51.55v146.557h84.694v-96.29l77.541 39.069 11.668-23.083-89.209-44.939v-70.984l142.366 71.761 11.632-23.065-153.98-77.649v-135.719h331.441c6.99 0 13.474 3.486 17.322 9.356 3.829 5.798 4.461 13.203 1.698 19.616z" />
<glyph unicode="&#xe963;" glyph-name="dribbble" d="M947.001 523.762c-5.852 28.683-14.648 56.932-26.028 83.917-11.18 26.497-25.052 52.001-41.164 75.843-15.985 23.643-34.318 45.86-54.512 66.035-20.175 20.212-42.41 38.563-66.035 54.512-23.842 16.166-49.382 29.983-75.843 41.2-26.985 11.361-55.216 20.175-83.917 25.991-29.387 6.033-59.659 9.103-89.896 9.103-30.272 0-60.508-3.071-89.932-9.103-28.683-5.816-56.932-14.648-83.899-25.991-26.461-11.217-52.001-25.052-75.879-41.2-23.643-15.949-45.86-34.282-66.035-54.512-20.194-20.175-38.509-42.41-54.476-66.035-16.13-23.842-29.983-49.346-41.164-75.843-11.433-26.985-20.194-55.234-26.064-83.917-6.015-29.351-9.067-59.623-9.067-89.877 0-30.308 3.053-60.581 9.067-89.95 5.87-28.683 14.648-56.932 26.046-83.899 11.18-26.461 25.052-52.037 41.164-75.879 15.967-23.643 34.282-45.824 54.476-66.035 20.175-20.175 42.41-38.491 66.035-54.476 23.878-16.13 49.418-29.983 75.879-41.164 26.949-11.433 55.216-20.139 83.899-26.028 29.423-6.069 59.659-9.103 89.932-9.103 30.236 0 60.508 3.034 89.896 9.103 28.719 5.888 56.932 14.612 83.917 26.028 26.461 11.18 52.001 25.052 75.843 41.164 23.643 15.985 45.86 34.282 66.035 54.476 20.175 20.212 38.527 42.41 54.512 66.035 16.13 23.842 29.983 49.418 41.164 75.879 11.397 26.949 20.175 55.216 26.028 83.899 6.033 29.387 9.067 59.659 9.067 89.95 0.018 30.254-3.016 60.526-9.049 89.877zM890.755 437.659c-5.509 1.192-134.545 28.972-265.568 12.499-2.673 6.52-5.401 13.095-8.218 19.688-7.929 18.658-16.473 37.154-25.359 55.306 150.603 61.448 211.743 149.862 212.448 150.91 53.482-64.916 85.832-147.893 86.699-238.403zM761.43 720.044c-0.957-1.481-55.252-84.134-199.172-138.085-65.186 119.77-136.803 214.904-142.529 222.454 28.827 6.99 58.883 10.765 89.859 10.765 96.56 0 184.65-35.98 251.841-95.134zM418.248 804.105c0-0.036-0.072-0.072-0.072-0.072s-0.415-0.108-1.12-0.253c0.379 0.108 0.813 0.181 1.192 0.325zM346.884 778.746c5.075-6.809 75.608-102.413 141.608-219.709-183.096-48.641-341.99-46.745-352.068-46.564 24.781 118.109 104.129 216.042 210.461 266.273zM128.278 433.884c0 4.064 0.181 8.038 0.325 12.047 6.719-0.144 195.144-4.425 391.462 54.331 10.928-21.386 21.386-43.114 30.941-64.825-5.039-1.409-10.061-2.926-15.028-4.552-205.783-66.505-310.164-251.679-310.164-251.679s0.144-0.108 0.144-0.181c-60.707 67.571-97.68 156.888-97.68 254.858zM509.589 52.537c-92.28 0-176.919 32.801-242.882 87.385 5.003-4.064 8.543-6.665 8.543-6.665s73.098 159.417 299.218 238.204c0.849 0.325 1.698 0.56 2.547 0.813 53.663-139.422 75.807-256.194 81.46-289.519-45.77-19.471-96.073-30.218-148.887-30.218zM722.668 117.579c-3.883 23.029-24.203 134.943-74.218 272.378 123.076 19.688 229.769-14.070 237.626-16.653-16.978-106.242-77.794-197.889-163.409-255.725z" />
<glyph unicode="&#xe964;" glyph-name="b_Xing-icon_bl" d="M721.4 866.6c-36.6-62.2-287.2-492-287.8-493.8-0.4-1.2 45.4-83.8 101.4-183.4l102-181.4h86.6c47.4 0 86.4 0.4 86.4 1 0 1-194.2 343-202.2 356.2l-3.6 6 136 244c75 134 139.8 250.4 144.2 258.4l8 14.4h-158.2l-12.8-21.4zM184.4 725.6c1.6-2.6 27-41.8 56.4-87.2l53.4-82.6-5.4-9.4c-3-5.2-39.6-66.8-81.2-137s-75.6-128-75.6-128.6c0-0.4 36.6-0.8 81.6-0.8l81.4 0.2 81.4 137.8 81.6 137.6-53.6 86.8-53.4 86.6-84.8 0.6-84.6 0.4 2.8-4.4z" />
<glyph unicode="&#xe965;" glyph-name="twitter" d="M976.84 679.142c-32.72-14.535-67.908-24.342-104.853-28.742 37.703 22.578 66.639 58.35 80.274 101-35.277-20.929-74.33-36.124-115.923-44.317-33.292 35.48-80.742 57.653-133.243 57.653-100.816 0-182.553-81.739-182.553-182.555 0-14.305 1.613-28.231 4.727-41.592-151.721 7.602-286.244 80.274-376.281 190.73-15.709-26.952-24.713-58.307-24.713-91.776 0-63.331 32.227-119.203 81.209-151.95-29.916 0.961-58.077 9.163-82.683 22.843-0.016-0.759-0.016-1.526-0.016-2.312 0-88.433 62.927-162.215 146.446-178.998-15.32-4.163-31.45-6.403-48.101-6.403-11.775 0-23.205 1.138-34.352 3.28 23.241-72.522 90.656-125.306 170.525-126.779-62.477-48.967-141.183-78.15-226.722-78.15-14.728 0-29.254 0.874-43.541 2.549 80.803-51.804 176.749-82.020 279.839-82.020 335.791 0 519.395 278.174 519.395 519.413 0 7.902-0.159 15.795-0.511 23.618 35.657 25.735 66.621 57.889 91.077 94.509z" />
<glyph unicode="&#xe966;" glyph-name="bandcamp-logo" d="M87.824 453.351c-48.34-84.688-87.824-154.799-87.824-155.906 0-0.923 72.879-1.661 190.593-1.661l190.409 0.185 86.717 152.585 86.717 152.401 0.554-153.508 0.369-153.508h49.816v29.89l6.089-8.118c6.827-9.041 21.956-18.635 35.425-22.879 14.576-4.428 47.418-5.351 62.547-1.845 35.609 8.487 60.333 34.871 71.403 76.2 5.535 20.295 5.535 59.964 0.185 80.075-8.303 30.628-26.938 56.458-49.632 68.636-13.284 7.196-35.425 12.362-52.030 12.362-24.539 0-43.359-7.196-60.148-22.51l-10.148-9.225v111.072h-433.032l-88.009-154.246zM695.028 481.026c34.871-16.974 48.525-75.462 27.676-118.821-17.343-36.347-67.713-43.728-95.020-14.022-14.022 15.129-20.665 34.687-20.665 61.071 0 32.288 11.255 57.196 30.812 69.374 15.867 9.963 40.037 10.886 57.196 2.399zM888.205 524.754c-20.665-4.982-33.395-12.177-47.787-26.753-14.76-14.945-22.879-28.783-28.967-50.001-3.506-12.362-4.244-19.188-4.244-41.514 0-22.879 0.554-28.783 4.244-40.591 15.867-50.37 53.322-77.492 107.382-77.492 50.923 0 85.61 23.432 100.739 68.267 2.399 7.38 4.428 15.683 4.428 18.635v5.351h-51.292l-2.030-8.672c-6.642-26.2-26.2-41.883-52.768-41.883-39.299-0.185-62.916 36.716-57.934 90.407 3.506 36.901 18.081 57.381 46.311 64.577 12.915 3.321 26.384 2.583 38.377-2.214 9.963-4.059 22.879-18.635 25.831-29.152l2.399-8.487h51.661l-1.107 10.332c-3.321 33.026-33.026 61.625-72.326 69.927-17.343 3.69-46.495 3.321-62.916-0.738z" />
<glyph unicode="&#xe967;" glyph-name="flickr" d="M462.392 447.991c0-107.625-87.248-194.873-194.873-194.873s-194.873 87.248-194.873 194.873c0 107.625 87.248 194.873 194.873 194.873s194.873-87.248 194.873-194.873zM951.354 447.991c0-107.625-87.248-194.873-194.873-194.873s-194.873 87.248-194.873 194.873c0 107.625 87.248 194.873 194.873 194.873s194.873-87.248 194.873-194.873z" />
<glyph unicode="&#xe968;" glyph-name="c_spotify-512-black" d="M469.8 765.2c-131.6-19-235.6-112.4-267.8-240-35.4-140.8 29.4-288.6 157-358.2 77.2-42.2 170.8-50.4 254-22.8 125.4 41.8 212.8 157.4 218.4 289 4.4 100.6-37 195.4-113.2 259.2-42.8 35.6-91 58.8-145.4 69.6-26.4 5.4-77 6.8-103 3.2zM559 592.2c55.4-8.6 106.8-23.4 145.8-42.2 26.8-13 32.4-16.8 37.2-24.4 7.8-13 3.6-32.6-8.8-40.6-2.8-1.8-8.6-3.8-13-4.4-6.8-1-11.6 0.8-34.6 12-41 20.2-81 32-137.6 40.8-18.2 2.8-35.2 3.6-82 3.6-63.6 0-80.4-1.6-123.4-12.4-23.8-5.8-31.4-5.2-41.4 3.4-12.2 10.8-13 28.8-2 42 3.6 4.2 9 7.2 18.4 10 18.2 5.4 47.6 11.2 70.4 13.8 10.4 1.2 21.8 2.6 25 3 3.4 0.4 31.2 0.6 62 0.2 44.6-0.4 61.8-1.6 84-4.8zM537 482.2c31.8-5.6 44.4-8.6 73.8-18.2 28.8-9.4 79.2-33.8 85-41.4 9-11.2 7.2-26-4.2-35.6-9.8-8.2-17.6-6.8-45.8 7.8-53.8 28-106.6 40.6-175.8 42.6-43.8 1.2-73-1.6-110.4-10.8-25-6-33-5.4-40.4 3.6-9.8 11.6-8 29 4.2 36.8 8.8 5.8 51 15 90.6 19.8 3.8 0.4 27.8 0.6 53 0.2 35.6-0.4 51.4-1.6 70-4.8zM505.6 381.8c27.8-3 56.2-9 79.8-16.8 21.8-7.2 57.4-24.2 68-32.2 12.4-9.4 10.4-26.4-4-33.4l-7.6-3.8-26.4 13c-31 15.4-54.4 23.4-85.8 29.8-19.4 3.8-28.8 4.6-66.6 4.6-44.4 0-58-1.2-98.6-9.4-17.2-3.4-21.4-3.6-26.6-1.6-14.4 6-15.4 28-1.8 35 6.8 3.4 39.2 10 64 12.8 10.4 1.2 21.8 2.6 25 3 14 1.6 62.6 1 80.6-1z" />
<glyph unicode="&#xe969;" glyph-name="twitter2" d="M739.683 195.12h-168.34c-119.77 0-138.862 52.994-138.862 102.124 0 23.318 1.445 61.773 2.89 108.861h281.264c42.085 0 122.407 17.249 122.407 94.249 0 76.945-37.082 127.393-86.753 127.393h-313.415c-0.325 111.046-7.55 221.677-116.013 221.677-44.848 0-81.244-18.423-96.597-64.175-20.139-60.111-14.811-130.499-14.558-193.085 0.072-11.885 0.126-23.842 0.163-35.763 0.144-41.001 0.975-82.237 1.156-123.437 0.108-44.343 0.163-88.685 0.163-132.992 0-248.283 225.669-318.635 268.946-318.635s212.827-4.028 243.46-4.028 118.524 8.11 118.524 97.012-62.351 120.8-104.436 120.8z" />
<glyph unicode="&#xe96a;" glyph-name="houzz-dark-icon" d="M464.533 932.933c-24.933-14.8-90.4-53.6-145.6-86.267l-100.267-59.333v-687.6l4.4 2.667c2.267 1.467 36.933 22 76.933 45.6s87.333 51.733 105.333 62.4c84 49.733 104.133 61.6 104.667 61.6 0.4 0 0.667-75.333 0.667-167.467 0-158.933 0.133-167.467 2.4-166.533 1.2 0.4 25.733 14.667 54.267 31.733 28.667 16.933 75.467 44.667 104 61.6 28.667 16.933 70.133 41.467 92.4 54.667l40.267 23.867v676.8l-2.933-1.867c-1.733-0.933-27.333-16.267-57.067-33.733-29.733-17.6-93.733-55.6-142.4-84.4s-88.8-51.867-89.333-51.333c-0.533 0.533-1.2 78.133-1.6 172.667l-0.667 171.733-45.467-26.8zM522.4 606.4c4.133-2.267 9.867-5.6 12.533-7.333 2.8-1.6 5.333-3.067 5.733-3.067s4.667-2.4 9.467-5.333c4.8-2.933 9.067-5.333 9.333-5.333s5.6-2.933 12-6.667c6.4-3.6 11.733-6.667 12-6.667s4.4-2.4 9.2-5.333c4.8-2.933 8.933-5.333 9.333-5.333s4.533-2.4 9.333-5.333c4.8-2.933 9.067-5.333 9.333-5.333 0.4 0 4.667-2.4 9.467-5.333s8.933-5.333 9.2-5.333c0.267 0 8.4-4.533 18.267-10.133 9.733-5.6 21.6-12.267 26.4-14.933 4.8-2.533 10.267-5.733 12.267-7.2 1.867-1.333 3.867-2.4 4.267-2.4 0.533 0 4.8-2.4 9.6-5.333s9.067-5.333 9.333-5.333c0.267 0 5.6-2.933 12-6.667 6.4-3.6 11.733-6.667 12-6.667s4.4-2.4 9.2-5.333c4.8-2.933 8.933-5.333 9.333-5.333 0.267 0 3.733-1.867 7.6-4.133 3.867-2.4 9.2-5.467 11.733-6.8 12.533-6.933 18.667-11.067 18.667-12.667 0-1.467-9.333-8.4-11.333-8.4-0.533 0-3.467-1.733-6.667-4-3.2-2.133-6.133-4-6.667-4s-3.467-1.733-6.667-4c-3.2-2.133-6.133-4-6.667-4s-3.467-1.867-6.667-4c-3.2-2.267-6.133-4-6.533-4s-7.6-4.133-16.133-9.333c-8.533-5.067-15.733-9.333-16.133-9.333s-3.333-1.733-6.533-4c-3.2-2.133-6.133-4-6.667-4s-3.467-1.733-6.667-4c-3.2-2.133-6.133-4-6.4-4s-10.667-6-22.933-13.333c-12.133-7.333-22.533-13.333-22.8-13.333-0.4 0-3.333-1.733-6.533-4-3.2-2.133-6-4-6.4-4-0.267 0-13.6-7.733-29.467-17.333-16-9.467-29.333-17.333-29.733-17.333s-2.267-1.067-4.133-2.533c-2-1.333-5.733-3.733-8.267-5.067-2.533-1.467-14.4-8.533-26.267-15.6s-22-12.8-22.4-12.8c-1.6 0-10.533 4.4-12.667 6.133-1.067 0.933-6.533 4-12 6.8s-12.4 6.667-15.333 8.533c-2.933 1.733-7.067 4.133-9.333 5.2-2.133 1.067-4.933 2.667-6 3.467-1.067 0.933-5.333 3.333-9.333 5.467s-9.733 5.333-12.667 7.2c-2.933 1.733-8.267 4.667-12 6.533-3.6 1.733-7.6 3.867-8.667 4.8s-5.333 3.333-9.333 5.467c-4 2.133-9.733 5.333-12.667 7.2-2.933 1.733-7.067 4.133-9.333 5.2-2.133 1.067-4.933 2.667-6 3.467-1.067 0.933-5.333 3.333-9.333 5.467s-9.733 5.333-12.667 7.2c-2.933 1.733-8.267 4.667-12 6.533-3.6 1.733-7.6 3.867-8.667 4.8s-5.333 3.333-9.333 5.467c-4 2.133-9.733 5.333-12.667 7.2-2.933 1.733-7.067 4.133-9.333 5.2-2.133 1.067-4.933 2.667-6 3.467-1.067 0.933-5.333 3.333-9.333 5.467s-9.733 5.333-12.667 7.2c-2.933 1.733-8.267 4.667-12 6.533-3.6 1.733-7.6 3.867-8.667 4.8s-5.333 3.333-9.333 5.467c-4 2.133-9.867 5.467-12.933 7.467-3.2 2-6.267 3.6-6.933 3.6s-1.733 0.667-2.133 1.467c-0.933 1.467 2.933 6.533 5.067 6.533 0.667 0 3.867 1.867 7.2 4 3.2 2.267 6.133 4 6.667 4 0.4 0 3.333 1.867 6.667 4 3.2 2.267 6.133 4 6.533 4 0.267 0 3.067 1.6 6.267 3.6 3.067 2 8.933 5.333 12.933 7.467s8.267 4.667 9.467 5.733c1.067 1.067 2.533 1.867 3.067 1.867 0.667 0 3.733 1.867 7.067 4 3.2 2.267 6.133 4 6.667 4 0.4 0 3.333 1.867 6.667 4 3.2 2.267 6.133 4 6.667 4 0.4 0 3.333 1.867 6.667 4 3.2 2.267 6.133 4 6.533 4 0.267 0 3.067 1.6 6.267 3.6 3.067 2 8.933 5.333 12.933 7.467s8.267 4.667 9.467 5.733c1.067 1.067 2.533 1.867 3.067 1.867 0.667 0 3.733 1.867 7.067 4 3.2 2.267 6.133 4 6.667 4 0.4 0 3.333 1.867 6.667 4 3.2 2.267 6.133 4 6.667 4 0.4 0 3.333 1.867 6.667 4 3.2 2.267 6.133 4 6.533 4 0.267 0 3.067 1.6 6.267 3.6 3.067 2 8.933 5.333 12.933 7.467s8.267 4.667 9.467 5.733c1.067 1.067 2.533 1.867 3.067 1.867 0.667 0 3.733 1.867 7.067 4 3.2 2.267 6.133 4 6.667 4 0.4 0 3.333 1.867 6.667 4 3.2 2.267 6.133 4 6.667 4 0.4 0 3.333 1.867 6.667 4 3.2 2.267 6.133 4 6.533 4 0.267 0 3.067 1.6 6.267 3.6 3.067 2 8.933 5.333 12.933 7.467s8.267 4.533 9.333 5.467c1.867 1.6 6.267 3.733 8.267 4 0.4 0.133 1.333 0.533 1.867 1.2 1.867 1.867 6.133 0.933 13.6-3.333z" />
<glyph unicode="&#xe96b;" glyph-name="facebook" d="M730.255 567.346h-138.085v90.564c0 34.011 22.542 41.94 38.418 41.94 15.841 0 97.446 0 97.446 0v149.519l-134.202 0.524c-148.977 0-182.88-111.516-182.88-182.88v-99.667h-86.157v-154.071h86.157c0-197.727 0-435.967 0-435.967h181.218c0 0 0 240.588 0 435.967h122.281l15.804 154.071z" />
</font>
</defs>
</svg>
